Ссылка на приватное зеркало всего за 1$. Внимание количество ограничено!!!

iTunes

1+1

iTunes

мы

MV0

1

WEB-DLRip

Джокер

Пифагор

Ведьмак / The Witcher сериал

iTunes

ПШазам

iTunes

Оно 2

iTunes

30
pack

Вам бонус

ВАЖНО

!!Акция!!

Alien_RageХит недели

RePack

Resident Evil 21

ИГРА 18+

pack

RePack

jed

!!Акция!!

Alien_Rage

RePack

fifa19

RePack

Assassins Creed: Odyssey

RePack

NEED FOR SPEED™ PAYBACK

4 сезон

9 сезон

Бесстыжие 9 сезон

Все сериалы

все сериалы на PB.wtf

RePack

FAR CRY 5
  

Король Слон / The Elephant King (Хади Мохаммадян) [2017, Мультфильм, фэнтези, комедия, WEB-DL 1080p] DUB [iTunes] piratbit.ga

Король Слон через торрент piratbit.ga

Раздают: 5 [ 221 KB/s ]
Размер: 2.4 GB | Добавлен: 2 мес. 5 д. назад | Торрент скачан:153 раза
Скачать  

23-12-2019 16:39 Король Слон Скачать торрент  

Король Слон / The Elephant King Год выпуска: 2017
Страна: Иран, Ливан
Жанр: Мультфильм, фэнтези, комедия, приключения, семейный, история
Продолжительность: 01:07:56
Перевод: Дублированный | iTunes
Субтитры: отсутствуют

Режиссер: Хади Мохаммадян

rating

В ролях: Саид Шейхзаде, Оссейн Эрфани, Нассер Тахмасб, Зохре Шокуфанде, Бахрам Занд, Джордж Петроси, Акбар Маннани, Шаукат Хойят, Хамед Азизи, Ардешир Моназам

Описание: Стать Королем слонов - задача очень сложная, даже если у тебя золотое сердце, ты огромный и сильный, а твой папа - тоже король. Поэтому юному Счастливчику пришлось пройти через столько испытаний! Сразиться в турнире с другими претендентами на трон, вступить в войну с охотниками за бивнями, выйти на арену против разъяренных тигров... И всегда помнить наказ мудрого отца. Чтобы быть настоящим вожаком, надо делать добрые дела, никогда не обижать слабых и верить в себя. И даже этого мало, если у тебя нет верных друзей.

Качество: WEB-DL 1080p
Формат: MKV

Видео: MPEG-4 AVC, 4575 Кбит/с, 1920x798
Аудио: 48 kHz, AC3 Dolby Digital, 3/2 (L,C,R,l,r) + LFE ch, ~384 kbps
скриншот  скриншот  скриншот  скриншот  

Video
ID : 1
Format : AVC
Format/Info : Advanced Video Codec
Format profile : High@L4
Format settings : CABAC / 5 Ref Frames
Format settings, CABAC : Yes
Format settings, Reference : 5 frames
Codec ID : V_MPEG4/ISO/AVC
Duration : 1 h 7 min
Bit rate : 4 575 kb/s
Width : 1 920 pixels
Height : 798 pixels
Display aspect ratio : 2.40:1
Frame rate mode : Constant
Frame rate : 24.000 FPS
Color space : YUV
Chroma subsampling : 4:2:0
Bit depth : 8 bits
Scan type : Progressive
Bits/(Pixel*Frame) : 0.124
Stream size : 2.17 GiB (90%)
Title : The_EL_KING_2017_WEB-DL_1080p-BLUEBIRD
Language : English
Default : Yes
Forced : No
Color range : Limited
Color primaries : BT.709
Transfer characteristics : BT.709
Matrix coefficients : BT.709

Audio
ID : 2
Format : AC-3
Format/Info : Audio Coding 3
Commercial name : Dolby Digital
Codec ID : A_AC3
Duration : 1 h 7 min
Bit rate mode : Constant
Bit rate : 384 kb/s
Channel(s) : 6 channels
Channel layout : L R C LFE Ls Rs
Sampling rate : 48.0 kHz
Frame rate : 31.250 FPS (1536 SPF)
Compression mode : Lossy
Stream size : 187 MiB (8%)
Title : [DUB] DD 5.1 @ 384 kbps (iTunes)
Language : Russian
Service kind : Complete Main
Default : Yes
Forced : No

Menu
00:00:00.000 : en:Глава 1
00:02:13.750 : en:Глава 2
00:07:34.916 : en:Глава 3
00:11:48.416 : en:Глава 4
00:17:49.041 : en:Глава 5
00:24:21.582 : en:Глава 6
00:29:13.915 : en:Глава 7
00:38:34.123 : en:Глава 8
00:46:30.956 : en:Глава 9
00:51:41.497 : en:Глава 10
00:56:46.997 : en:Глава 11
01:03:46.538 : en:Глава 12
piratbit.ga



Скачать Король Слон через торрент https://c.radikal.ru/c32/1912/e5/d0b2fe1c6ec5.png Скачать фильм Король Слон через торрент бесплантно в хорошем качестве Описание: Стать Королем слонов - задача очень сложная, даже если у тебя золотое сердце, ты огромный и сильный, а твой папа - тоже король. ... 10 10 6
Торрент: Зарегистрирован [2019-12-23 16:39] · скачан: 153 раз
Статус: √ проверено
Размер: 2.4 GB
Как cкачать? Как скачать Король Слон через торрент | qTorrent

% Раздел Тема Автор DL S | L
National Geographic [ 628 MB ] Nat Geo Wild: Слон: Король Калахари / Elephant. King of the Kalahari [2016 ДокументальныйHDTVRip ] Armstrong Скачать
1 | 0

28-11-2019 20:33  

Отключить всю рекламу на сайте

    Дорогой пользователь! Огромная просьба, поблагодарите релизера, оцените раздачу и оставьте свои комментарий, если Вы скачали Король Слон через торрент бесплатно! Внесите свою лепту в развитие PiratBit!
    Комментировать посты могут только пользователи прошедшие не сложную регистрацию
    Показать сообщения:    

    Король Слон через торрент
    Скачать бесплатно Король Слон
    Король Слон скачать торрент
    Король Слон смотреть онлайн
    Cкачать фильм Король Слон бесплатно
    Король Слон скачать торрент в хорошем качестве
    Король Слон смотреть онлайн бесплатно в хорошем качестве


    Вы не можете начинать темы
    Вы не можете отвечать на сообщения
    Вы не можете редактировать свои сообщения
    Вы не можете удалять свои сообщения
    Вы не можете голосовать в опросах
    Вы не можете прикреплять файлы к сообщениям
    Вы можете скачивать файлы