MEGA NEWS Получи личный уникальный адрес сайта и защити себя от блокировок. Внимание количество ограничено!!!

iTunes

1+1

iTunes

мы

iTunes

1

iTunes

Чернобыль

iTunes

Ральф против интернета

Лицензия

ПШазам

Лицензия

Игра престолов

Лицензия

30
pack

ВАЖНО

!!Акция!!

Alien_RageХит недели

RePack

Resident Evil 21

ИГРА 18+

pack

RePack

Metro:Exodus

!!Акция!!

Alien_Rage

RePack

fifa19

RePack

Assassins Creed: Odyssey

RePack

NEED FOR SPEED™ PAYBACK

3 сезон

9 сезон

Бесстыжие 9 сезон

Все сериалы

все сериалы на PB.wtf

RePack

FAR CRY 5
Ребята, катастрофически не хватает 1900р. для оплаты серверов за АВГУСТ (всвязи с блокировками трафик упал в 3 раза), 1-2р., выручайте.
  

Аладдин / Aladdin (Гай Ричи) [2019, мюзикл, фэнтези, мелодрама, комедия, приключения, семейный, BDRip-AVC] DUB [Лицензия] piratbit.ga

Аладдин через торрент piratbit.ga

Раздают: 9 [ 87 KB/s ] Качают: 1 [ 0 KB/s ]
Размер: 1.46 GB | Добавлен: 7 д. назад | Торрент скачан:107 раз
Скачать  

09-10-2019 18:41 Аладдин Скачать торрент  

Аладдин / Aladdin Год выпуска: 2019
Страна: США
Жанр: мюзикл, фэнтези, мелодрама, комедия, приключения, семейный
Продолжительность: 02:07:58
Перевод: Дублированный | Лицензия
Субтитры: Русские (полные, SDH), английские (полные, SDH)

Режиссер: Гай Ричи

rating

В ролях:

Мена Массуд (Aladdin), Наоми Скотт (Jasmine), Уилл Смит (Genie / Mariner), Марван Кензари (Jafar), Навид Негабан (Sultan), Назим Педрад (Dalia), Билли Магнуссен (Prince Anders), Джордан А. Нэш (Omar), Талия Блэр (Lian), Обри Лин (Omi), Амир Бутрус (Jamal), Нуман Аджар (Hakim)
Описание: Молодой воришка по имени Аладдин хочет стать принцем, чтобы жениться на принцессе Жасмин. Тем временем визирь Аграбы Джафар намеревается захватить Влacть над Аграбой, а для этого он стремится заполучить волшебную лампу, хранящуюся в пещере чудес, доступ к которой разрешен лишь тому, кого называют «алмаз неограненный», и этим человеком является никто иной, как сам Аладдин.

Качество: BDRip-AVC
Формат: MKV

Видео: 720x302 (2.40:1), 23.976 fps, x264 ~1 184 kbps avg, 0.227 bit/pixel
Аудио: 48 kHz, AC3 Dolby Digital, 3/2 (L,C,R,l,r) + LFE ch, ~448.00 kbps avg | RUS (Лицензия)
скриншот  скриншот  скриншот  скриншот  скриншот  

General
Unique ID : 305449264056941982843697652788549574867 (0xE5CB636F16BCC4BD0DDAA1178B1AE0D3)
Complete name : D:OlLanDGroupAladdin.2019.1.46Gb.BDRip(AVC).OlLanDGroup.mkv
Format : Matroska
Format version : Version 4
File size : 1.46 GiB
Duration : 2 h 7 min
Overall bit rate : 1 634 kb/s
Movie name : Aladdin.2019 #Skandar2019#
Encoded date : UTC 2019-10-09 15:00:25
Writing application : mkvmerge v31.0.0 ('Dolores In A Shoestand') 64-bit
Writing library : libebml v1.3.6 + libmatroska v1.4.9

Video
ID : 1
Format : AVC
Format/Info : Advanced Video Codec
Format profile : High@L4.1
Format settings : CABAC / 10 Ref Frames
Format settings, CABAC : Yes
Format settings, ReFrames : 10 frames
Codec ID : V_MPEG4/ISO/AVC
Duration : 2 h 7 min
Bit rate : 1 184 kb/s
Width : 720 pixels
Height : 302 pixels
Display aspect ratio : 2.40:1
Frame rate mode : Constant
Frame rate : 23.976 (24000/1001) FPS
Color space : YUV
Chroma subsampling : 4:2:0
Bit depth : 8 bits
Scan type : Progressive
Bits/(Pixel*Frame) : 0.227
Stream size : 1.06 GiB (72%)
Writing library : x264 core 146 r2538 121396c
Encoding settings : cabac=1 / ref=10 / deblock=1:-2:-3 / analyse=0x3:0x133 / me=umh / subme=11 / psy=1 / psy_rd=0.97:0.05 / mixed_ref=1 / me_range=48 / chroma_me=1 / trellis=2 / 8x8dct=1 / cqm=0 / deadzone=21,11 / fast_pskip=0 / chroma_qp_offset=-3 / threads=6 / lookahead_threads=1 / sliced_threads=0 / nr=0 / decimate=0 / interlaced=0 / bluray_compat=0 / constrained_intra=0 / bframes=11 / b_pyramid=2 / b_adapt=2 / b_bias=0 / direct=3 / weightb=1 / open_gop=0 / weightp=2 / keyint=240 / keyint_min=23 / scenecut=40 / intra_refresh=0 / rc_lookahead=40 / rc=2pass / mbtree=0 / bitrate=1184 / ratetol=1.0 / qcomp=0.60 / qpmin=0 / qpmax=69 / qpstep=4 / cplxblur=20.0 / qblur=0.5 / vbv_maxrate=50000 / vbv_bufsize=62500 / nal_hrd=none / filler=0 / ip_ratio=1.40 / pb_ratio=1.30 / aq=1:1.00
Language : Russian
Default : Yes
Forced : No

Audio
ID : 2
Format : AC-3
Format/Info : Audio Coding 3
Commercial name : Dolby Digital
Codec ID : A_AC3
Duration : 2 h 7 min
Bit rate mode : Constant
Bit rate : 448 kb/s
Channel(s) : 6 channels
Channel layout : L R C LFE Ls Rs
Sampling rate : 48.0 kHz
Frame rate : 31.250 FPS (1536 SPF)
Bit depth : 16 bits
Compression mode : Lossy
Stream size : 410 MiB (27%)
Title : DUB [BD EUR]
Language : Russian
Service kind : Complete Main
Default : Yes
Forced : No

Text #1
ID : 3
Format : UTF-8
Codec ID : S_TEXT/UTF8
Codec ID/Info : UTF-8 Plain Text
Duration : 2 h 6 min
Bit rate : 82 b/s
Count of elements : 1788
Stream size : 76.8 KiB (0%)
Title : Full
Language : Russian
Default : No
Forced : No

Text #2
ID : 4
Format : UTF-8
Codec ID : S_TEXT/UTF8
Codec ID/Info : UTF-8 Plain Text
Duration : 2 h 0 min
Bit rate : 110 b/s
Count of elements : 2327
Stream size : 97.2 KiB (0%)
Title : SDH
Language : Russian
Default : No
Forced : No

Text #3
ID : 5
Format : UTF-8
Codec ID : S_TEXT/UTF8
Codec ID/Info : UTF-8 Plain Text
Duration : 2 h 7 min
Bit rate : 65 b/s
Count of elements : 2113
Stream size : 61.2 KiB (0%)
Title : Full
Language : English
Default : No
Forced : No

Text #4
ID : 6
Format : UTF-8
Codec ID : S_TEXT/UTF8
Codec ID/Info : UTF-8 Plain Text
Duration : 2 h 7 min
Bit rate : 74 b/s
Count of elements : 2435
Stream size : 69.7 KiB (0%)
Title : SDH
Language : English
Default : No
Forced : No

Menu
00:00:00.000 : en:Chapter 01
00:04:49.372 : en:Chapter 02
00:13:04.659 : en:Chapter 03
00:18:55.760 : en:Chapter 04
00:26:18.410 : en:Chapter 05
00:30:26.324 : en:Chapter 06
00:39:51.889 : en:Chapter 07
00:54:50.162 : en:Chapter 08
01:02:18.652 : en:Chapter 09
01:09:19.489 : en:Chapter 10
01:21:53.033 : en:Chapter 11
01:33:51.417 : en:Chapter 12
01:38:48.381 : en:Chapter 13
01:45:19.396 : en:Chapter 14
01:53:07.030 : en:Chapter 15
01:59:38.463 : en:Chapter 16

piratbit.ga



Скачать Аладдин через торрент https://c.radikal.ru/c38/1905/4f/aeaba4f2516d.png Скачать фильм Аладдин через торрент бесплантно в хорошем качестве Описание: Молодой воришка по имени Аладдин хочет стать принцем, чтобы жениться на принцессе Жасмин. Тем временем визирь Аграбы Джафар ... 10 10 5
Торрент: Зарегистрирован [2019-10-09 18:41] · скачан: 107 раз
Статус: √ проверено
Размер: 1.46 GB
Как cкачать? Как скачать Аладдин через торрент | qTorrent

% Раздел Тема Автор DL S | L
3D Фильмы [ 18.51 GB ] Аладдин в 3Д / Aladdin 3D [2019 мюзикл BDRip 1080p] OverUnder / Вертикальная стереопара () serega768 Скачать
1 | 0
Ultra HD (UHD: 2K, 4K, 8K) — видео сверхвысокой чёткости [ 27.13 GB ] Аладдин / Aladdin [2019 мюзикл UHD BDRip 2160p] [SDR] DUB [] +MVO [HDRezka Studio] bober100 Скачать
1 | 1
Фильмы 2019 [DVDrip, WEB-DLRip, HDrip] (DUB, MVO) [ 2.41 GB ] Аладдин / Aladdin [2019 мюзикл BDRip-AVC] DUB [] bober100 Скачать
18 | 1
Фильмы (Blu-ray, BD-Remux, HDDVD) [ 27.53 GB ] Аладдин / Aladdin [2019 мюзикл BD Remux 1080p] DUB [] bober100 Скачать
2 | 0
Ultra HD (UHD: 2K, 4K, 8K) — видео сверхвысокой чёткости [ 49.36 GB ] Аладдин / Aladdin [2019 мюзикл UHD BDRemux 2160p] DUB [] bober100 Скачать
7 | 0
Фильмы [HD 720p, 1080p] (Хороший звук DUB, MVO) [ 7.97 GB ] Аладдин / Aladdin [2019 мюзикл BDRip 720p] DUB [] bober100 Скачать
11 | 0
Фильмы [HD 720p, 1080p] (Хороший звук DUB, MVO) [ 13.02 GB ] Аладдин / Aladdin [2019 мюзикл BDRip 1080p] DUB [] bober100 Скачать
16 | 0


>> Регистрируемся здесь <<






Отзывы и комментарии о схеме читаем и пишем здесь: ---> Отзывы и комментарии о схеме

Новые благодарочки в телеграм довольных пользователей:
скриншот   скриншот   скриншот   скриншот   скриншот
    Дорогой пользователь! Огромная просьба, поблагодарите релизера, оцените раздачу и оставьте свои комментарий, если Вы скачали Аладдин через торрент бесплатно! Внесите свою лепту в развитие PiratBit!
    Комментировать посты могут только пользователи прошедшие не сложную регистрацию
    Показать сообщения:    

    Аладдин через торрент
    Скачать бесплатно Аладдин
    Аладдин скачать торрент
    Аладдин смотреть онлайн
    Cкачать фильм Аладдин бесплатно
    Аладдин скачать торрент в хорошем качестве
    Аладдин смотреть онлайн бесплатно в хорошем качестве


    Вы не можете начинать темы
    Вы не можете отвечать на сообщения
    Вы не можете редактировать свои сообщения
    Вы не можете удалять свои сообщения
    Вы не можете голосовать в опросах
    Вы не можете прикреплять файлы к сообщениям
    Вы можете скачивать файлы