MEGA NEWS Получи личный уникальный адрес сайта и защити себя от блокировок. Внимание количество ограничено!!!

iTunes

1+1

iTunes

мы

iTunes

1

iTunes

Чернобыль

iTunes

Ральф против интернета

Лицензия

ПШазам

Лицензия

Игра престолов

Лицензия

30
pack

ВАЖНО

!!Акция!!

Alien_RageХит недели

RePack

Resident Evil 21

ИГРА 18+

pack

RePack

Metro:Exodus

!!Акция!!

Alien_Rage

RePack

fifa19

RePack

Assassins Creed: Odyssey

RePack

NEED FOR SPEED™ PAYBACK

3 сезон

9 сезон

Бесстыжие 9 сезон

Все сериалы

все сериалы на PB.wtf

RePack

FAR CRY 5
Ребята, катастрофически не хватает 1900р. для оплаты серверов за АВГУСТ (всвязи с блокировками трафик упал в 3 раза), 1-2р., выручайте.
  

Государственный секретарь / Мадам госсекретарь / Madam Secretary / Сезон: 6 / Серии: 1 из 20 (Эрик Столц, Роб Дж. Гринли, Феликс Энрикез Алькала) [2019, драма, WEB-DL 720p] MVO [Jaskier] piratbit.ga

Государственный секретарь через торрент piratbit.ga

Размер: 1.89 GB | Добавлен: 7 д. назад | Торрент скачан:0 раз
Скачать  

09-10-2019 18:14 Государственный секретарь Скачать торрент  

Мадам госсекретарь | Madam Secretary Год выпуска: 2019
Страна: США
Жанр: драма
Продолжительность: ~ 00:43:00
Перевод: Профессиональный (многоголосый закадровый) | Jaskier
Субтитры: отсутствуют

Режиссёр: Эрик Столц, Роб Дж. Гринли, Феликс Энрикез Алькала

В ролях: Теа Леони, Тим Дейли, Патина Ренеа Миллер, Джеффри Аренд, Эрих Берген, Кэтерин Херцер, Эван Ро, Желько Иванек, Уоллис Карри-Вуд, Кит Кэрредин и др.

Описание: История о государственном секретаре. После нескольких лет жизни вдали от ЦРУ, ей вновь приходится вернуться на политическую арену, где у нее получается решать вопросы даже в тех случаях, когда ради этого необходимо играть не по правилам.



Качество: WEB-DL 720p
Формат: MKV

Видео: 1280x720 (16:9) | X264 | ~5300 kbps | 24 fps
Аудио 1: AC3, 48,0 КГц, 6 ch, 384 kbps - Rus
Аудио 2: AC3, 48,0 КГц, 6 ch, 384 kbps - Eng


Реклама: Присутствует звуковая (два раза в начале и конце по 13 сек.)
Переведено и озвучено: студией Jaskier
Общее
Уникальный идентификатор                 : 186628020853011927668069829715387361967 (0x8C673FD783F1A0F9B0A6A7A775BE2AAF)
Полное имя                               : V:\Madam.Secretary. Season 6 (720p l Jaskier)\Madam.Secretary.S06E01.720p.Jaskier.mkv
Формат                                   : Matroska
Версия формата                           : Version 2
Размер файла                             : 1,89 Гбайт
Продолжительность                        : 43 м.
Режим общего битрейта                    : Постоянный
Общий поток                              : 6216 Кбит/сек
Дата кодирования                         : UTC 2019-10-09 16:23:30
Программа кодирования                    : mkvmerge v7.8.0 ('River Man') 32bit built on Apr  3 2015 12:11:22
Библиотека кодирования                   : libebml v1.3.1 + libmatroska v1.4.2

Видео
Идентификатор                            : 1
Формат                                   : AVC
Формат/Информация                        : Advanced Video Codec
Профиль формата                          : High@L3.1
Параметр CABAC формата                   : Да
Параметр ReFrames формата                : 4 кадра
Идентификатор кодека                     : V_MPEG4/ISO/AVC
Продолжительность                        : 43 м.
Вид битрейта                             : Постоянный
Битрейт                                  : 5325 Кбит/сек
Номинальный битрейт                      : 6000 Кбит/сек
Ширина                                   : 1280 пикселей
Высота                                   : 720 пикселей
Соотношение сторон                       : 16:9
Режим частоты кадров                     : Постоянный
Частота кадров                           : 24,000 кадра/сек
Цветовое пространство                    : YUV
Субдискретизация насыщенности            : 4:2:0
Битовая глубина                          : 8 бит
Тип развёртки                            : Прогрессивная
Бит/(Пиксели*Кадры)                      : 0.241
Размер потока                            : 1,61 Гбайт (86%)
Default                                  : Да
Forced                                   : Нет
Цветовой диапазон                        : Limited
Основные цвета                           : BT.709
Характеристики трансфера                 : BT.709
Коэффициенты матрицы                     : BT.709

Аудио #1
Идентификатор                            : 2
Формат                                   : AC-3
Формат/Информация                        : Audio Coding 3
Расширение режима                        : CM (complete main)
Параметр Endianness формата              : Big
Идентификатор кодека                     : A_AC3
Продолжительность                        : 43 м.
Вид битрейта                             : Постоянный
Битрейт                                  : 384 Кбит/сек
Каналы                                   : 6 каналов
Расположение каналов                     : Front: L C R, Side: L R, LFE
Частота                                  : 48,0 КГц
Частота кадров                           : 31,250 кадров/сек (1536 spf)
Метод сжатия                             : С потерями
Размер потока                            : 119 Мбайт (6%)
Язык                                     : Russian
Default                                  : Да
Forced                                   : Нет

Аудио #2
Идентификатор                            : 3
Формат                                   : AC-3
Формат/Информация                        : Audio Coding 3
Расширение режима                        : CM (complete main)
Параметр Endianness формата              : Big
Идентификатор кодека                     : A_AC3
Продолжительность                        : 43 м.
Вид битрейта                             : Постоянный
Битрейт                                  : 384 Кбит/сек
Каналы                                   : 6 каналов
Расположение каналов                     : Front: L C R, Side: L R, LFE
Частота                                  : 48,0 КГц
Частота кадров                           : 31,250 кадров/сек (1536 spf)
Метод сжатия                             : С потерями
Размер потока                            : 119 Мбайт (6%)
Язык                                     : English
Default                                  : Нет
Forced                                   : Нет
Когда раздача ведётся путём добавления новых серий, при каждом добавлении создётся новый торрент. Чтобы начать докачку новой серии, пользователям необходимо сделать следующее:
(1) остановить скачивание,
(2) удалить старый торрент у себя из клиента (старые серии удалять не надо),
(3) скачать новый торрент и запустить его у себя в клиенте вместо старого, при этом указать клиенту путь в старую папку, куда и должно происходить скачивание новых серий.
Ваш клиент при этом должен произвести хеширование (проверку) старой папки (если не производит сам - помогите ему сделать это), и будет докачивать только те серии, которых у вас ещё нет. Старые серии при этом не удаляются, а продолжают раздаваться!
Eсли вы уже удалили старые серии, то предотвратить повторную закачку старых серий можно, отжав галочку в соответсвующих местах при запуске нового торрента. По возможности, желательно не удалять старые серии как можно дольше, чтобы релизёр не столько продолжал раздавать старые серии, а смог сконцентрироваться на новых.
piratbit.ga



Скачать Государственный секретарь через торрент https://i86.fastpic.ru/big/2019/1009/b1/54a507904aa80cbf40a12b16d5e92db1.png Скачать фильм Государственный секретарь через торрент бесплантно в хорошем качестве Описание: История о государственном секретаре. После нескольких лет жизни вдали от ЦРУ, ей вновь приходится вернуться на политическую ... 10 10 2
Торрент: Зарегистрирован [2019-10-09 18:14] · скачан: 0 раз
Статус: √ проверено
Размер: 1.89 GB
Как cкачать? Как скачать Государственный секретарь через торрент | qTorrent


>> Регистрируемся здесь <<






Отзывы и комментарии о схеме читаем и пишем здесь: ---> Отзывы и комментарии о схеме

Новые благодарочки в телеграм довольных пользователей:
скриншот   скриншот   скриншот   скриншот   скриншот
    Дорогой пользователь! Огромная просьба, поблагодарите релизера, оцените раздачу и оставьте свои комментарий, если Вы скачали Государственный секретарь через торрент бесплатно! Внесите свою лепту в развитие PiratBit!
    Комментировать посты могут только пользователи прошедшие не сложную регистрацию
    Показать сообщения:    

    Государственный секретарь через торрент
    Скачать бесплатно Государственный секретарь
    Государственный секретарь скачать торрент
    Государственный секретарь смотреть онлайн
    Cкачать фильм Государственный секретарь бесплатно
    Государственный секретарь скачать торрент в хорошем качестве
    Государственный секретарь смотреть онлайн бесплатно в хорошем качестве


    Вы не можете начинать темы
    Вы не можете отвечать на сообщения
    Вы не можете редактировать свои сообщения
    Вы не можете удалять свои сообщения
    Вы не можете голосовать в опросах
    Вы не можете прикреплять файлы к сообщениям
    Вы можете скачивать файлы