MEGA NEWS Получи личный уникальный адрес сайта и защити себя от блокировок. Внимание количество ограничено!!!

iTunes

1+1

iTunes

мы

iTunes

1

iTunes

Чернобыль

iTunes

Ральф против интернета

Лицензия

ПШазам

Лицензия

Игра престолов

Лицензия

30
pack

ВАЖНО

!!Акция!!

Alien_RageХит недели

RePack

Resident Evil 21

ИГРА 18+

pack

RePack

Metro:Exodus

!!Акция!!

Alien_Rage

RePack

fifa19

RePack

Assassins Creed: Odyssey

RePack

NEED FOR SPEED™ PAYBACK

3 сезон

9 сезон

Бесстыжие 9 сезон

Все сериалы

все сериалы на PB.wtf

RePack

FAR CRY 5
Ребята, катастрофически не хватает 1900р. для оплаты серверов за АВГУСТ (всвязи с блокировками трафик упал в 3 раза), 1-2р., выручайте.
  

Тёмный кристалл: Эпоха сопротивления / The Dark Crystal: Age of Resistance / Сезон: 1 / Серии: 1-10 из 10 (Луи Летерье) [2019, Фэнтези, приключения, UHD WEB-DL 2160p] DUB [Пифагор] piratbit.ga

Тёмный кристалл: Эпоха сопротивления через торрент piratbit.ga

Размер: 71.4 GB | Добавлен: 9 д. назад | Торрент скачан:6 раз
Скачать  

07-10-2019 19:26 Тёмный кристалл: Эпоха сопротивления Скачать торрент  

Тёмный кристалл: Эпоха сопротивления / The Dark Crystal: Age of Resistance
Год выпуска: 2019
Страна: Великобритания, США
Жанр: Фэнтези, приключения
Продолжительность: ~ 00:50:00 серия
Перевод: Дублированный | Пифагор по заказу Netflix
Субтитры: Русские, английские

Режиссер: Луи Летерье

rating


В ролях: Аквафина, Катрина Балф, Хелена Бонем Картер, Дэйв Чэпман, Чарли Кондо, Тарон Эгертон, Натали Эммануэль, Аня Тейлор-Джой и др.

Описание: Гелфлинги Райан, Бриа и Дит выясняют, что зловещие скексисы повредили волшебный кристалл, подпитывающий жизнь в мире. Именно благодаря им начинается восстание, способное уничтожить жестоких захватчиков.

Качество: UHD WEB-DL 2160p
Формат: MKV

Видео: HEVC HDR10, ~ 20.4 Mбит/с, 3840x1728, 23.976 кадр/с, 10 Бит
Аудио#1: AC3, 6 ch, 640 kbps - русский_Пифагор
Аудио#2: AC3, 6 ch, 640 kbps - английский
скриншот  скриншот  скриншот  

скриншот  скриншот  скриншот  

Общее
Уникальный идентификатор : 176708880206002451712275718244513489229 (0x84F0E47332C8B1FA9D30964B0A52214D)
Полное имя : D:\The.Dark.Crystal.Age.of.Resistance.S01.WEB-DL.2160p.x265.10bit.HDR.Master5\The.Dark.Crystal-Age.Of.Resistance.S01E01.WEB-DL.2160p.x265.10bit.HDR.Master5.mkv
Формат : Matroska
Версия формата : Version 4
Размер файла : 9,01 Гбайт
Продолжительность : 1 ч. 1 м.
Общий поток : 21,1 Мбит/сек
Название фильма : The.Dark.Crystal-Age.Of.Resistance.S01E01.WEB-DL.2160p.x265.10bit.HDR.Master5
Дата кодирования : UTC 2019-10-07 16:22:08
Программа кодирования : mkvmerge v7.9.0 ('Birds') 64bit
Библиотека кодирования : libebml v1.3.1 + libmatroska v1.4.2

Видео
Идентификатор : 1
Формат : HEVC
Формат/Информация : High Efficiency Video Coding
Коммерческое название : HDR10
Профиль формата : Main 10@L5@Main
Идентификатор кодека : V_MPEGH/ISO/HEVC
Продолжительность : 1 ч. 0 м.
Битрейт : 20,0 Мбит/сек
Ширина : 3840 пикселей
Высота : 1728 пикселей
Соотношение сторон : 2,222
Режим частоты кадров : Постоянный
Частота кадров : 23,976 (24000/1001) кадра/сек
Цветовое пространство : YUV
Субдискретизация насыщенности : 4:2:0
Битовая глубина : 10 бит
Бит/(Пиксели*Кадры) : 0.126
Размер потока : 8,47 Гбайт (94%)
Заголовок : The.Dark.Crystal-Age.Of.Resistance.S01E01.WEB-DL.2160p.x265.10bit.HDR.Master5
Библиотека кодирования : x265 3.1_RC1+3-3bdf06e3c628:[Windows][MSVC 1921][64 bit] 10bit
Настройки программы : cpuid=1111039 / frame-threads=4 / numa-pools=28,0 / wpp / no-pmode / no-pme / no-psnr / no-ssim / log-level=2 / input-csp=1 / input-res=3840x1728 / interlace=0 / total-frames=0 / level-idc=0 / high-tier=1 / uhd-bd=0 / ref=5 / no-allow-non-conformance / repeat-headers / annexb / no-aud / no-hrd / info / hash=0 / no-temporal-layers / open-gop / min-keyint=23 / keyint=250 / gop-lookahead=0 / bframes=8 / b-adapt=2 / b-pyramid / bframe-bias=0 / rc-lookahead=40 / lookahead-slices=0 / scenecut=40 / radl=0 / no-splice / no-intra-refresh / ctu=64 / min-cu-size=8 / no-rect / no-amp / max-tu-size=32 / tu-inter-depth=3 / tu-intra-depth=3 / limit-tu=0 / rdoq-level=1 / dynamic-rd=0.00 / no-ssim-rd / signhide / no-tskip / nr-intra=0 / nr-inter=0 / no-constrained-intra / strong-intra-smoothing / max-merge=5 / limit-refs=0 / no-limit-modes / me=3 / subme=4 / merange=57 / temporal-mvp / weightp / weightb / no-analyze-src-pics / deblock=0:0 / no-sao / no-sao-non-deblock / rd=6 / no-early-skip / rskip / no-fast-intra / no-tskip-fast / no-cu-lossless / b-intra / no-splitrd-skip / rdpenalty=0 / psy-rd=4.00 / psy-rdoq=8.00 / no-rd-refine / no-lossless / cbqpoffs=0 / crqpoffs=0 / rc=crf / crf=12.0 / qcomp=0.60 / qpstep=4 / stats-write=0 / stats-read=0 / ipratio=1.40 / pbratio=1.30 / aq-mode=2 / aq-strength=1.00 / cutree / zone-count=0 / no-strict-cbr / qg-size=32 / no-rc-grain / qpmax=69 / qpmin=0 / no-const-vbv / sar=0 / overscan=0 / videoformat=5 / range=0 / colorprim=9 / transfer=16 / colormatrix=9 / chromaloc=0 / display-window=0 / master-display=G(13250,34500)B(7500,3000)R(34000,16000)WP(15635,16450)L(10000000,1)cll=1133,598 / min-luma=0 / max-luma=1023 / log2-max-poc-lsb=8 / vui-timing-info / vui-hrd-info / slices=1 / no-opt-qp-pps / no-opt-ref-list-length-pps / no-multi-pass-opt-rps / scenecut-bias=0.05 / no-opt-cu-delta-qp / no-aq-motion / hdr / hdr-opt / no-dhdr10-opt / no-idr-recovery-sei / analysis-reuse-level=5 / scale-factor=0 / refine-intra=0 / refine-inter=0 / refine-mv=0 / refine-ctu-distortion=0 / no-limit-sao / ctu-info=0 / no-lowpass-dct / refine-analysis-type=0 / copy-pic=1 / max-ausize-factor=1.0 / no-dynamic-refine / no-single-sei / no-hevc-aq / no-svt / no-field / qp-adaptation-range=1.00
Default : Да
Forced : Нет
Цветовой диапазон : Limited
Основные цвета : BT.2020
Характеристики трансфера : PQ
Коэффициенты матрицы : BT.2020 non-constant
MasteringDisplay_ColorPrimaries : Display P3
MasteringDisplay_Luminance : min: 0.0001 cd/m2, max: 1000 cd/m2
MaxCLL : 1133 cd/m2
MaxFALL : 598 cd/m2

Аудио #1
Идентификатор : 2
Формат : AC-3
Формат/Информация : Audio Coding 3
Коммерческое название : Dolby Digital
Идентификатор кодека : A_AC3
Продолжительность : 1 ч. 1 м.
Вид битрейта : Постоянный
Битрейт : 640 Кбит/сек
Каналы : 6 каналов
Channel layout : L R C LFE Ls Rs
Частота : 48,0 КГц
Частота кадров : 31,250 кадров/сек (1536 SPF)
Битовая глубина : 16 бит
Метод сжатия : С потерями
Размер потока : 280 Мбайт (3%)
Заголовок : Dub
Язык : Russian
ServiceKind/String : Complete Main
Default : Да
Forced : Нет

Аудио #2
Идентификатор : 3
Формат : AC-3
Формат/Информация : Audio Coding 3
Коммерческое название : Dolby Digital
Идентификатор кодека : A_AC3
Продолжительность : 1 ч. 1 м.
Вид битрейта : Постоянный
Битрейт : 640 Кбит/сек
Каналы : 6 каналов
Channel layout : L R C LFE Ls Rs
Частота : 48,0 КГц
Частота кадров : 31,250 кадров/сек (1536 SPF)
Битовая глубина : 16 бит
Метод сжатия : С потерями
Размер потока : 280 Мбайт (3%)
Язык : English
ServiceKind/String : Complete Main
Default : Нет
Forced : Нет

Текст #1
Идентификатор : 4
Формат : UTF-8
Идентификатор кодека : S_TEXT/UTF8
Идентификатор кодека/Информация : UTF-8 Plain Text
Продолжительность : 59 м. 42 с.
Битрейт : 74 бит/сек
ElementCount : 746
Размер потока : 32,5 Кбайт (0%)
Язык : Russian
Default : Нет
Forced : Нет

Текст #2
Идентификатор : 5
Формат : UTF-8
Идентификатор кодека : S_TEXT/UTF8
Идентификатор кодека/Информация : UTF-8 Plain Text
Продолжительность : 58 м. 27 с.
Битрейт : 68 бит/сек
ElementCount : 1049
Размер потока : 29,2 Кбайт (0%)
Язык : English
Default : Нет
Forced : Нет

piratbit.ga



Скачать Тёмный кристалл: Эпоха сопротивления через торрент https://funkyimg.com/i/2WzQS.jpg Скачать фильм Тёмный кристалл: Эпоха сопротивления через торрент бесплантно в хорошем качестве Описание: Гелфлинги Райан, Бриа и Дит выясняют, что зловещие скексисы повредили волшебный кристалл, подпитывающий жизнь в мире. Именно ... 10 10 2
Торрент: Зарегистрирован [2019-10-07 19:26] · скачан: 6 раз
Статус: √ проверено
Размер: 71.4 GB
Как cкачать? Как скачать Тёмный кристалл: Эпоха сопротивления через торрент | qTorrent

% Раздел Тема Автор DL S | L
Мультсериалы [ 21.26 GB ] Тёмный кристалл: Эпоха сопротивления / The Dark Crystal: Age of Resistance / Сезон: 1 / Серия: 1-10 из 10 [2019 WEB-DL 1080p] MVO [TVShows] bober100 Скачать
1 | 0
Мультсериалы [ 12.08 GB ] Тёмный кристалл: Эпоха сопротивления / The Dark Crystal: Age of Resistance / Сезон: 1 / Серии: 1-10 из 10 [2019 мультфильм WEB-DL 720p] MVO [AlexFilm] bober100 Скачать
2 | 0
Мультсериалы [ 19.9 GB ] Тёмный кристалл: Эпоха сопротивления / The Dark Crystal: Age of Resistance / Сезон: 1 / Серия: 1-10 из 10 [2019 WEB-DL 1080p] MVO [AlexFilm] bober100 Скачать
1 | 0
Мультсериалы [ 13.89 GB ] Тёмный кристалл: Эпоха сопротивления / The Dark Crystal: Age of Resistance / Сезон: 1 / Серии: 1-10 из 10 [2019 WEB-DL 720p] DUB [Пифагор] bober100 Скачать
2 | 3
Мультсериалы [ 8.48 GB ] Тёмный кристалл: Эпоха сопротивления / The Dark Crystal: Age of Resistance / Сезон: 1 / Серии: 1-10 из 10 [2019 WEB-DLRip] DUB [Пифагор] bober100 Скачать
4 | 0
Мультсериалы [ 22.17 GB ] Тёмный кристалл: Эпоха сопротивления / The Dark Crystal: Age of Resistance / Сезон: 1 / Серии: 1-10 из 10 [2019 WEBRip 1080p] DUB [Пифагор] bober100 Скачать
3 | 1


>> Регистрируемся здесь <<






Отзывы и комментарии о схеме читаем и пишем здесь: ---> Отзывы и комментарии о схеме

Новые благодарочки в телеграм довольных пользователей:
скриншот   скриншот   скриншот   скриншот   скриншот
    Дорогой пользователь! Огромная просьба, поблагодарите релизера, оцените раздачу и оставьте свои комментарий, если Вы скачали Тёмный кристалл: Эпоха сопротивления через торрент бесплатно! Внесите свою лепту в развитие PiratBit!
    Комментировать посты могут только пользователи прошедшие не сложную регистрацию
    Показать сообщения:    

    Тёмный кристалл: Эпоха сопротивления через торрент
    Скачать бесплатно Тёмный кристалл: Эпоха сопротивления
    Тёмный кристалл: Эпоха сопротивления скачать торрент
    Тёмный кристалл: Эпоха сопротивления смотреть онлайн
    Cкачать фильм Тёмный кристалл: Эпоха сопротивления бесплатно
    Тёмный кристалл: Эпоха сопротивления скачать торрент в хорошем качестве
    Тёмный кристалл: Эпоха сопротивления смотреть онлайн бесплатно в хорошем качестве


    Вы не можете начинать темы
    Вы не можете отвечать на сообщения
    Вы не можете редактировать свои сообщения
    Вы не можете удалять свои сообщения
    Вы не можете голосовать в опросах
    Вы не можете прикреплять файлы к сообщениям
    Вы можете скачивать файлы