новый адрес
Мега распродажа FORZA HORIZON 4 ULTIMATE+ВСЕ DLC+ОНЛАЙН всего за 499р. 349 руб. (супер цена). Внимание количество ограничено!!!

iTunes

1+1

iTunes

мы

iTunes

1

iTunes

Чернобыль

iTunes

Ральф против интернета

Лицензия

ПШазам

Лицензия

Игра престолов

Лицензия

30
pack

ВАЖНО

!!Акция!!

Alien_RageХит недели

RePack

Resident Evil 21

ИГРА 18+

pack

RePack

Metro:Exodus

!!Акция!!

Alien_Rage

RePack

fifa19

RePack

Assassins Creed: Odyssey

RePack

NEED FOR SPEED™ PAYBACK

3 сезон

9 сезон

Бесстыжие 9 сезон

Все сериалы

все сериалы на PB.wtf

RePack

FAR CRY 5
Ребята, катастрофически не хватает 1900р. для оплаты серверов за Октябрь (всвязи с блокировками трафик упал в 3 раза), 1-2р., выручайте.
  

Cycпиpия / Susріrіа (Дарио Ардженто) [1977, ужасы, мистика, UHD BDRemux 2160p] [SDR] MVO [Селена Интернешенел] + 5xAVO piratbit.ga

Cycпиpия через торрент piratbit.ga

Раздают: 1 [ 0 KB/s ]
Размер: 53.38 GB | Добавлен: 1 мес. 12 д. назад | Торрент скачан:0 раз
Скачать  

06-10-2019 08:51 Cycпиpия Скачать торрент  

Название: Cycпиpия
Оригинальное название: Susріrіа
Страна: Италия
Жанр: Ужасы, Мистика
Год выпуска: 1977
Продолжительность: 01:40:50
Перевод: Профессиональный многоголосый, авторский одноголосый
Режиссер: Дарио Ардженто
В ролях: Джессика Харпер, Стефания Казини, Джоан Бенетт, Алида Валли, Барбара Мапнолфи, Удо Киер

Описание: Юная американка Сюзи приезжает в Германию обучаться мастерству танца в престижной мюнхенской балетной школе. В ночь приезда её туда почему-то не пустили, но она видела, как из здания выбежала девушка, которая позже в ту же ночь была жестоко убита. На утро недоразумение разрешится, Сюзи примут, и она приступит к занятиям. Девушке придётся жить в пансионате при школе, на ночь её будут поить вином с подмешанным снотворным, но Сюзи всё равно почувствует витающую в воздухе школы угрозу и захочет выяснить, что ей угрожает.



Качество: UHD BDRemux 2160p
Контейнер: MKV
Видео: HEVC/x.265, 3840x1636, 64.8 Mb/s, 24 кадра/сек, Main 10@L5.1@High, SDR, 10bit
Аудио: Русский, AC3, 2 канала, 224 Kbps, Многоголосый закадровый (Селена Интернешенел)
Аудио 2: Русский, DTS, 6 каналов, 1510 Kbps, Гаврилов
Аудио 3: Русский, DTS, 6 каналов, 1510 Kbps, Визгунов
Аудио 4: Русский, DTS, 6 каналов, 1510 Kbps, Швецов
Аудио 5: Русский, AC3, 2 канала, 192 Kbps, Штейн
Аудио 6: Русский, AC3, 2 канала, 224 Kbps, Белов
Аудио 7: Итальянский, DTS-HD, 6 каналов, 2036 Kbps
Аудио 8: Английский, DTS-HD, 6 каналов, 4000 Kbps
Субтитры: Русские, Английские, Итальянские
Общее
Уникальный идентификатор : 259633946372734775231728311916703965864 (0xC353ADDF631EB06D730A8854986EE2A8)
Полное имя : Z:\Cycпиpия - Susріrіа\Cycпиpия - Susріrіа (1977)(2160p).mkv
Формат : Matroska
Версия формата : Version 4
Размер файла : 53,4 Гбайт
Продолжительность : 1 ч. 40 м.
Режим общего битрейта : Переменный
Общий поток : 75,8 Мбит/сек
Название фильма : Cycпиpия - Susріrіа (Remux by DSIO)
Дата кодирования : UTC 2019-10-06 06:54:09
Программа кодирования : mkvmerge v35.0.0 ('All The Love In The World') 64-bit
Библиотека кодирования : libebml v1.3.9 + libmatroska v1.5.2
Обложка : Yes
Attachments : cover.jpg
Encoding Gui : Hybrid 2019.06.09.2

Видео
Идентификатор : 1
Формат : HEVC
Формат/Информация : High Efficiency Video Coding
Профиль формата : Main 10@L5.1@High
Идентификатор кодека : V_MPEGH/ISO/HEVC
Продолжительность : 1 ч. 40 м.
Битрейт : 64,8 Мбит/сек
Ширина : 3840 пикселей
Высота : 2160 пикселей
Соотношение сторон : 16:9
Режим частоты кадров : Постоянный
Частота кадров : 24,000 кадра/сек
Стандарт вещания : Component
Цветовое пространство : YUV
Субдискретизация насыщенности : 4:2:0
Битовая глубина : 10 бит
Бит/(Пиксели*Кадры) : 0.325
Размер потока : 45,6 Гбайт (85%)
Default : Да
Forced : Нет
Цветовой диапазон : Limited
Основные цвета : BT.709
Характеристики трансфера : BT.709
Коэффициенты матрицы : BT.709

Аудио #1
Идентификатор : 2
Формат : AC-3
Формат/Информация : Audio Coding 3
Коммерческое название : Dolby Digital
Идентификатор кодека : A_AC3
Продолжительность : 1 ч. 38 м.
Вид битрейта : Постоянный
Битрейт : 224 Кбит/сек
Каналы : 2 канала
ChannelLayout : L R
Частота : 48,0 КГц
Частота кадров : 31,250 кадров/сек (1536 SPF)
Метод сжатия : С потерями
Размер потока : 158 Мбайт (0%)
Заголовок : MVO
Язык : Russian
ServiceKind/String : Complete Main
Default : Да
Forced : Нет

Аудио #2
Идентификатор : 3
Формат : DTS
Формат/Информация : Digital Theater Systems
Идентификатор кодека : A_DTS
Продолжительность : 1 ч. 38 м.
Вид битрейта : Постоянный
Битрейт : 1510 Кбит/сек
Каналы : 6 каналов
ChannelLayout : C L R Ls Rs LFE
Частота : 48,0 КГц
Частота кадров : 93,750 кадра/сек (512 SPF)
Битовая глубина : 24 бит
Метод сжатия : С потерями
Размер потока : 1,04 Гбайт (2%)
Заголовок : Гаврилов
Язык : Russian
Default : Нет
Forced : Нет

Аудио #3
Идентификатор : 4
Формат : DTS
Формат/Информация : Digital Theater Systems
Идентификатор кодека : A_DTS
Продолжительность : 1 ч. 38 м.
Вид битрейта : Постоянный
Битрейт : 1510 Кбит/сек
Каналы : 6 каналов
ChannelLayout : C L R Ls Rs LFE
Частота : 48,0 КГц
Частота кадров : 93,750 кадра/сек (512 SPF)
Битовая глубина : 24 бит
Метод сжатия : С потерями
Размер потока : 1,04 Гбайт (2%)
Заголовок : Визгунов
Язык : Russian
Default : Нет
Forced : Нет

Аудио #4
Идентификатор : 5
Формат : DTS
Формат/Информация : Digital Theater Systems
Идентификатор кодека : A_DTS
Продолжительность : 1 ч. 38 м.
Вид битрейта : Постоянный
Битрейт : 1510 Кбит/сек
Каналы : 6 каналов
ChannelLayout : C L R Ls Rs LFE
Частота : 48,0 КГц
Частота кадров : 93,750 кадра/сек (512 SPF)
Битовая глубина : 24 бит
Метод сжатия : С потерями
Размер потока : 1,04 Гбайт (2%)
Заголовок : Швецов
Язык : Russian
Default : Нет
Forced : Нет

Аудио #5
Идентификатор : 6
Формат : AC-3
Формат/Информация : Audio Coding 3
Коммерческое название : Dolby Digital
Идентификатор кодека : A_AC3
Продолжительность : 1 ч. 38 м.
Вид битрейта : Постоянный
Битрейт : 192 Кбит/сек
Каналы : 2 канала
ChannelLayout : L R
Частота : 48,0 КГц
Частота кадров : 31,250 кадров/сек (1536 SPF)
Метод сжатия : С потерями
Размер потока : 135 Мбайт (0%)
Заголовок : Штейн
Язык : Russian
ServiceKind/String : Complete Main
Default : Нет
Forced : Нет

Аудио #6
Идентификатор : 7
Формат : AC-3
Формат/Информация : Audio Coding 3
Коммерческое название : Dolby Digital
Идентификатор кодека : A_AC3
Продолжительность : 1 ч. 38 м.
Вид битрейта : Постоянный
Битрейт : 224 Кбит/сек
Каналы : 2 канала
ChannelLayout : L R
Частота : 48,0 КГц
Частота кадров : 31,250 кадров/сек (1536 SPF)
Метод сжатия : С потерями
Размер потока : 158 Мбайт (0%)
Заголовок : Белов
Язык : Russian
ServiceKind/String : Complete Main
Default : Нет
Forced : Нет

Аудио #7
Идентификатор : 8
Формат : DTS XLL
Формат/Информация : Digital Theater Systems
Коммерческое название : DTS-HD Master Audio
Идентификатор кодека : A_DTS
Продолжительность : 1 ч. 39 м.
Вид битрейта : Переменный
Битрейт : 2036 Кбит/сек
Каналы : 6 каналов
ChannelLayout : C L R Ls Rs LFE
Частота : 48,0 КГц
Частота кадров : 93,750 кадра/сек (512 SPF)
Битовая глубина : 16 бит
Метод сжатия : Без потерь
Размер потока : 1,41 Гбайт (3%)
Язык : Italian
Default : Нет
Forced : Нет

Аудио #8
Идентификатор : 9
Формат : DTS XLL
Формат/Информация : Digital Theater Systems
Коммерческое название : DTS-HD Master Audio
Идентификатор кодека : A_DTS
Продолжительность : 1 ч. 39 м.
Вид битрейта : Переменный
Битрейт : 4000 Кбит/сек
Каналы : 6 каналов
ChannelLayout : C L R Ls Rs LFE
Частота : 48,0 КГц
Частота кадров : 93,750 кадра/сек (512 SPF)
Битовая глубина : 24 бит
Метод сжатия : Без потерь
Размер потока : 2,77 Гбайт (5%)
Язык : English
Default : Нет
Forced : Нет

Текст #1
Идентификатор : 10
Формат : UTF-8
Идентификатор кодека : S_TEXT/UTF8
Идентификатор кодека/Информация : UTF-8 Plain Text
Продолжительность : 1 ч. 33 м.
Битрейт : 66 бит/сек
ElementCount : 737
Размер потока : 45,7 Кбайт (0%)
Язык : Russian
Default : Нет
Forced : Нет

Текст #2
Идентификатор : 11
Формат : UTF-8
Идентификатор кодека : S_TEXT/UTF8
Идентификатор кодека/Информация : UTF-8 Plain Text
Продолжительность : 1 ч. 33 м.
Битрейт : 33 бит/сек
ElementCount : 606
Размер потока : 23,2 Кбайт (0%)
Язык : Italian
Default : Нет
Forced : Нет

Текст #3
Идентификатор : 12
Формат : UTF-8
Идентификатор кодека : S_TEXT/UTF8
Идентификатор кодека/Информация : UTF-8 Plain Text
Продолжительность : 1 ч. 33 м.
Битрейт : 35 бит/сек
ElementCount : 604
Размер потока : 24,3 Кбайт (0%)
Язык : English
Default : Нет
Forced : Нет

Меню
00:00:00.000 : :Глава 01
00:08:10.458 : :Глава 02
00:14:31.916 : :Глава 03
00:24:42.208 : :Глава 04
00:32:14.750 : :Глава 05
00:43:11.875 : :Глава 06
00:49:28.875 : :Глава 07
00:57:43.208 : :Глава 08
01:09:02.041 : :Глава 09
01:16:44.250 : :Глава 10
01:22:54.875 : :Глава 11
01:32:12.000 : :Глава 12
piratbit.ga



Скачать Cycпиpия через торрент https://d.radikal.ru/d00/1907/7b/eba07072df08.png Скачать фильм Cycпиpия через торрент бесплантно в хорошем качестве Описание: Юная американка Сюзи приезжает в Германию обучаться мастерству танца в престижной мюнхенской балетной школе. В ночь приезда её ... 5 10 1
Торрент: Зарегистрирован [2019-10-06 08:51] · скачан: 0 раз
Статус: √ проверено
Размер: 53.38 GB
Как cкачать? Как скачать Cycпиpия через торрент | qTorrent

% Раздел Тема Автор DL S | L
Ultra HD (UHD: 2K, 4K, 8K) — видео сверхвысокой чёткости [ 26.12 GB ] Cycпиpия / Susріrіа [1977 UHD BDRip 2160p] [SDR] MVO [Селена Интернешенел] + 5xAVO DSIO Скачать
2 | 0


>> Регистрируемся здесь <<






Отзывы и комментарии о схеме читаем и пишем здесь: ---> Отзывы и комментарии о схеме

Новые благодарочки в телеграм довольных пользователей:
скриншот   скриншот   скриншот   скриншот   скриншот
    Дорогой пользователь! Огромная просьба, поблагодарите релизера, оцените раздачу и оставьте свои комментарий, если Вы скачали Cycпиpия через торрент бесплатно! Внесите свою лепту в развитие PiratBit!
    Комментировать посты могут только пользователи прошедшие не сложную регистрацию
    Показать сообщения:    

    Cycпиpия через торрент
    Скачать бесплатно Cycпиpия
    Cycпиpия скачать торрент
    Cycпиpия смотреть онлайн
    Cкачать фильм Cycпиpия бесплатно
    Cycпиpия скачать торрент в хорошем качестве
    Cycпиpия смотреть онлайн бесплатно в хорошем качестве


    Вы не можете начинать темы
    Вы не можете отвечать на сообщения
    Вы не можете редактировать свои сообщения
    Вы не можете удалять свои сообщения
    Вы не можете голосовать в опросах
    Вы не можете прикреплять файлы к сообщениям
    Вы можете скачивать файлы