MEGA NEWS Получи личный уникальный адрес сайта и защити себя от блокировок. Внимание количество ограничено!!!

iTunes

1+1

iTunes

мы

iTunes

1

iTunes

Чернобыль

iTunes

Ральф против интернета

Лицензия

ПШазам

Лицензия

Игра престолов

Лицензия

30
pack

ВАЖНО

!!Акция!!

Alien_RageХит недели

RePack

Resident Evil 21

ИГРА 18+

pack

RePack

Metro:Exodus

!!Акция!!

Alien_Rage

RePack

fifa19

RePack

Assassins Creed: Odyssey

RePack

NEED FOR SPEED™ PAYBACK

3 сезон

9 сезон

Бесстыжие 9 сезон

Все сериалы

все сериалы на PB.wtf

RePack

FAR CRY 5
Ребята, катастрофически не хватает 1900р. для оплаты серверов за АВГУСТ (всвязи с блокировками трафик упал в 3 раза), 1-2р., выручайте.
  

История игрушек 4 / Toy Story 4 (Джош Кули) [2019, мультфильм, фэнтези, комедия, приключения, семейный, BD Remux 1080p] DUB [iTunes] +MVO [HDRezka Studio] piratbit.ga

История игрушек 4 через торрент piratbit.ga

Раздают: 9 [ 1 MB/s ]
Размер: 19.8 GB | Добавлен: 13 д. назад | Торрент скачан:68 раз
Скачать  

03-10-2019 19:03 История игрушек 4 Скачать торрент  

История игрушек 4 / Toy Story 4«Собирайтесь в дорогу»
Год выпуска: 2019
Страна: США
Жанр: мультфильм, фэнтези, комедия, приключения, семейный
Продолжительность: 01:40:03
Перевод:

#1: Дублированный | iTunes
#2: Профессиональный многоголосый | HDRezka Studio

Субтитры: Русские (Full, SDH), английские

Режиссер: Джош Кули

rating

В ролях: Том Хэнкс, Тим Аллен, Энни Поттс, Тони Хейл, Кигэн-Майкл Ки, Мадлен МакГроу, Кристина Хендрикс, Джордан Пил, Киану Ривз, Элли Матсумура

Описание: Астронавт Базз, ковбой Вуди, пёс Слинки, тиранозавр Рекс и вся команда игрушек снова вместе, и они как никогда готовы к приключениям. С тех пор, как Энди поступил в колледж, игрушки поселились в доме своей новой хозяйки Бонни, которая вот-вот пойдет в детский сад. Первый день в детском саду положит начало череде событий, в которой найдется место и путешествиям с погонями, и знакомству с новыми игрушками, и встречам с некоторыми из старых друзей и даже романтической истории.

Качество: BD Remux 1080p
Формат: MKV

Видео: MPEG-4 AVC, 1920x1080, 23.6 Mbit/s, 23.976 fps
Аудио#1: 48 kHz, AC3, 5.1, 384 Kbps | iTunes | RUS |
Аудио#2: 48 kHz, AC3, 2.0, 192 Kbps | HDRezka Studio | RUS |
Аудио#3: 48 kHz, DTS-HD MA, 7.1, 4160 Kbps | Оригинал | ENG |
скриншот  скриншот  скриншот  

скриншот  скриншот  скриншот  

General
Unique ID : 285876023601276651281424671556102879834 (0xD711B82C2537D1285A312829995D7A5A)
Complete name : D:Video111Toy.Story.4.2019.D.MVO.BDREMUX.1080p.seleZen.mkv
Format : Matroska
Format version : Version 4
File size : 19.8 GiB
Duration : 1 h 40 min
Overall bit rate mode : Variable
Overall bit rate : 28.3 Mb/s
Movie name : Toy Story 4 2019 from селезень
Encoded date : UTC 2019-10-03 18:47:48
Writing application : mkvmerge v22.0.0 ('At The End Of The World') 64-bit
Writing library : libebml v1.3.5 + libmatroska v1.4.8

Video
ID : 1
Format : AVC
Format/Info : Advanced Video Codec
Format profile : High@L4.1
Format settings : CABAC / 4 Ref Frames
Format settings, CABAC : Yes
Format settings, Reference : 4 frames
Format settings, GOP : M=1, N=12
Codec ID : V_MPEG4/ISO/AVC
Duration : 1 h 40 min
Bit rate mode : Variable
Bit rate : 23.6 Mb/s
Maximum bit rate : 29.6 Mb/s
Width : 1 920 pixels
Height : 1 080 pixels
Display aspect ratio : 16:9
Frame rate mode : Constant
Frame rate : 23.976 (24000/1001) FPS
Color space : YUV
Chroma subsampling : 4:2:0
Bit depth : 8 bits
Scan type : Progressive
Bits/(Pixel*Frame) : 0.475
Stream size : 16.5 GiB (83%)
Language : English
Default : Yes
Forced : No

Audio #1
ID : 2
Format : AC-3
Format/Info : Audio Coding 3
Commercial name : Dolby Digital
Codec ID : A_AC3
Duration : 1 h 40 min
Bit rate mode : Constant
Bit rate : 384 kb/s
Channel(s) : 6 channels
Channel layout : L R C LFE Ls Rs
Sampling rate : 48.0 kHz
Frame rate : 31.250 FPS (1536 SPF)
Bit depth : 16 bits
Compression mode : Lossy
Stream size : 275 MiB (1%)
Title : Dub [iTunes]
Language : Russian
Service kind : Complete Main
Default : Yes
Forced : Yes

Audio #2
ID : 3
Format : AC-3
Format/Info : Audio Coding 3
Commercial name : Dolby Digital
Codec ID : A_AC3
Duration : 1 h 40 min
Bit rate mode : Constant
Bit rate : 192 kb/s
Channel(s) : 2 channels
Channel layout : L R
Sampling rate : 48.0 kHz
Frame rate : 31.250 FPS (1536 SPF)
Bit depth : 16 bits
Compression mode : Lossy
Stream size : 137 MiB (1%)
Title : MVO [HDRezka Studio]
Language : Russian
Service kind : Complete Main
Default : No
Forced : No

Audio #3
ID : 4
Format : DTS XLL
Format/Info : Digital Theater Systems
Commercial name : DTS-HD Master Audio
Codec ID : A_DTS
Duration : 1 h 40 min
Bit rate mode : Variable
Bit rate : 4 160 kb/s
Channel(s) : 8 channels
Channel layout : C L R LFE Lb Rb Lss Rss
Sampling rate : 48.0 kHz
Frame rate : 93.750 FPS (512 SPF)
Bit depth : 24 bits
Compression mode : Lossless
Stream size : 2.91 GiB (15%)
Title : Original
Language : English
Default : No
Forced : No

Text #1
ID : 5
Format : UTF-8
Codec ID : S_TEXT/UTF8
Codec ID/Info : UTF-8 Plain Text
Duration : 1 h 39 min
Bit rate : 106 b/s
Count of elements : 1656
Stream size : 77.2 KiB (0%)
Title : Full
Language : Russian
Default : No
Forced : No

Text #2
ID : 6
Format : UTF-8
Codec ID : S_TEXT/UTF8
Codec ID/Info : UTF-8 Plain Text
Duration : 1 h 39 min
Bit rate : 121 b/s
Count of elements : 2039
Stream size : 88.7 KiB (0%)
Title : SDH
Language : Russian
Default : No
Forced : No

Text #3
ID : 7
Format : UTF-8
Codec ID : S_TEXT/UTF8
Codec ID/Info : UTF-8 Plain Text
Duration : 1 h 39 min
Bit rate : 65 b/s
Count of elements : 1806
Stream size : 47.2 KiB (0%)
Title : Full
Language : English
Default : No
Forced : No

Menu
00:00:00.000 : :Chapter 01
00:05:39.798 : :Chapter 02
00:11:21.097 : :Chapter 03
00:15:06.239 : :Chapter 04
00:19:01.140 : :Chapter 05
00:20:52.042 : :Chapter 06
00:22:43.821 : :Chapter 07
00:26:11.111 : :Chapter 08
00:27:47.082 : :Chapter 09
00:32:11.846 : :Chapter 10
00:36:17.425 : :Chapter 11
00:40:34.640 : :Chapter 12
00:42:56.699 : :Chapter 13
00:44:26.872 : :Chapter 14
00:46:39.380 : :Chapter 15
00:48:06.175 : :Chapter 16
00:49:18.664 : :Chapter 17
00:52:25.809 : :Chapter 18
00:53:58.568 : :Chapter 19
00:54:34.479 : :Chapter 20
00:59:06.960 : :Chapter 21
01:01:30.645 : :Chapter 22
01:04:40.752 : :Chapter 23
01:07:25.249 : :Chapter 24
01:09:31.042 : :Chapter 25
01:10:54.834 : :Chapter 26
01:12:05.154 : :Chapter 27
01:15:03.040 : :Chapter 28
01:17:29.770 : :Chapter 29
01:18:04.846 : :Chapter 30
01:19:21.840 : :Chapter 31
01:19:48.116 : :Chapter 32
01:22:24.940 : :Chapter 33
01:29:00.293 : :Chapter 34

piratbit.ga



Скачать История игрушек 4 через торрент https://img15.lostpic.net/2019/09/26/06ad920bd90ac207f3221adaa38376cb.jpg Скачать фильм История игрушек 4 через торрент бесплантно в хорошем качестве Описание: Астронавт Базз, ковбой Вуди, пёс Слинки, тиранозавр Рекс и вся команда игрушек снова вместе, и они как никогда готовы к ... 10 10 3
Торрент: Зарегистрирован [2019-10-03 19:03] · скачан: 68 раз
Статус: √ проверено
Размер: 19.8 GB
Как cкачать? Как скачать История игрушек 4 через торрент | qTorrent

% Раздел Тема Автор DL S | L
Ultra HD (UHD: 2K, 4K, 8K) [ 15.89 GB ] История игрушек 4 / Toy Story 4 [2019 мультфильм UHD BDRip 2160p] + MVO [HDRezka Studio] sheker187 Скачать
2 | 0
Иностранные мультфильмы [ 1.42 GB ] История игрушек 4 / Toy Story 4 [2019 мультфильм BDRip] bober100 Скачать
22 | 0
Ultra HD (UHD: 2K, 4K, 8K) [ 32.07 GB ] История игрушек 4 / Toy Story 4 [2019 мультфильм UHD BDRemux 2160p] +MVO [HDRezka Studio] bober100 Скачать
33 | 9
Зарубежные Мультфильмы (BDRip 1080p, 720p, Blu-ray, BD-Remux) [ 4.85 GB ] История игрушек 4 / Toy Story 4 [2019 мультфильм BDRip 720p] +MVO [HDRezka Studio] bober100 Скачать
29 | 0
Иностранные мультфильмы [ 1.97 GB ] История игрушек 4 / Toy Story 4 [2019 мультфильм BDRip-AVC] +MVO [HDRezka Studio] bober100 Скачать
16 | 0
Зарубежные Мультфильмы (BDRip 1080p, 720p, Blu-ray, BD-Remux) [ 10.48 GB ] История игрушек 4 / Toy Story 4 [2019 мультфильм BDRip 1080p] +MVO [HDRezka Studio] bober100 Скачать
19 | 0


>> Регистрируемся здесь <<






Отзывы и комментарии о схеме читаем и пишем здесь: ---> Отзывы и комментарии о схеме

Новые благодарочки в телеграм довольных пользователей:
скриншот   скриншот   скриншот   скриншот   скриншот
    Дорогой пользователь! Огромная просьба, поблагодарите релизера, оцените раздачу и оставьте свои комментарий, если Вы скачали История игрушек 4 через торрент бесплатно! Внесите свою лепту в развитие PiratBit!
    Комментировать посты могут только пользователи прошедшие не сложную регистрацию
    Показать сообщения:    

    История игрушек 4 через торрент
    Скачать бесплатно История игрушек 4
    История игрушек 4 скачать торрент
    История игрушек 4 смотреть онлайн
    Cкачать фильм История игрушек 4 бесплатно
    История игрушек 4 скачать торрент в хорошем качестве
    История игрушек 4 смотреть онлайн бесплатно в хорошем качестве


    Вы не можете начинать темы
    Вы не можете отвечать на сообщения
    Вы не можете редактировать свои сообщения
    Вы не можете удалять свои сообщения
    Вы не можете голосовать в опросах
    Вы не можете прикреплять файлы к сообщениям
    Вы можете скачивать файлы