MEGA NEWS Получи личный уникальный адрес сайта и защити себя от блокировок. Внимание количество ограничено!!!

iTunes

1+1

iTunes

мы

iTunes

1

iTunes

Чернобыль

iTunes

Ральф против интернета

Лицензия

ПШазам

Лицензия

Игра престолов

Лицензия

30
pack

ВАЖНО

!!Акция!!

Alien_RageХит недели

RePack

Resident Evil 21

ИГРА 18+

pack

RePack

Metro:Exodus

!!Акция!!

Alien_Rage

RePack

fifa19

RePack

Assassins Creed: Odyssey

RePack

NEED FOR SPEED™ PAYBACK

3 сезон

9 сезон

Бесстыжие 9 сезон

Все сериалы

все сериалы на PB.wtf

RePack

FAR CRY 5
Ребята, катастрофически не хватает 1900р. для оплаты серверов за АВГУСТ (всвязи с блокировками трафик упал в 3 раза), 1-2р., выручайте.
  

Триада / Сезон: 1 / Серии: 1-14 из 16 (Дмитрий Дьяченко) [2019, Комедия, HDTVRip] piratbit.ga

Триада через торрент piratbit.ga

Раздают: 3 [ 1003 KB/s ] Качают: 10 [ 0 KB/s ]
Размер: 4.31 GB | Добавлен: 8 ч. назад | Торрент скачан:5 раз
Скачать  

02-10-2019 21:01 Триада Скачать торрент  

Триада
Год выпуска: 2019
Страна: Россия
Жанр: Комедия
Продолжительность: ~ 00:25:00 (Серия)
Перевод: Не требуется
Субтитры: отсутствуют

Режиссер: Дмитрий Дьяченко



В ролях: Борис Дергачёв, Дарья Мороз, Любовь Аксёнова, Анастасия Калашникова, Александр Пташенчук, Инга Оболдина, Кирилл Полухин, Тимофей Трибунцев, Владислав Ветров, Елена Шевченко

Описание: Толя никак не может выбрать между любовницей и женой, с которой у них много лет не получается родить ребенка. Лучший друг советует ему переспать с танцовщицей в клубе и понять, перед какой из любящих женщин ему будет стыдно. Толя решает последовать совету… и через несколько недель все три женщины сообщают Толе, что у него будет ребенок… Ну то есть три ребенка… Одновременно! Вместо того чтобы провалиться сквозь землю, Толя принимает ответственное, но очень спорное решение. Несмотря ни на что он хочет остаться любящим отцом для каждого из троих детей. Поэтому Толя собирает всю триаду и объявляет, что все три матери должны непременно жить вместе с ним под одной крышей.

Качество: HDTVRip
Формат: AVI

Видео: XviD, 1600 Кбит/с, 720x400
Аудио: AC3 Dolby Digital, 48.0 kHz, 2/0 (L,R) ch, 192 kbps
скриншот  скриншот  скриншот  скриншот  

Общее
Полное имя : D:\Триада.2019 HDTVRip. Files-x\01. Триада.2019 HDTVRip. Files-x.avi
Формат : AVI
Формат/Информация : Audio Video Interleave
Размер файла : 352 Мбайт
Продолжительность : 27 м. 21 с.
Общий поток : 1802 Кбит/сек
Программа кодирования : VirtualDubMod 1.5.10.3 | www.virtualdub-fr.org || (build 2550/release)
Библиотека кодирования : VirtualDubMod build 2550/release

Видео
Идентификатор : 0
Формат : MPEG-4 Visual
Профиль формата : Advanced Simple@L5
Параметр BVOP формата : 1
Параметр QPel формата : Нет
Параметр GMC формата : Без точки перехода
Параметр матрицы формата : Выборочная
Идентификатор кодека : XVID
Идентификатор кодека/Подсказка : XviD
Продолжительность : 27 м. 21 с.
Битрейт : 1600 Кбит/сек
Ширина : 720 пикселей
Высота : 400 пикселей
Соотношение сторон : 16:9
Частота кадров : 25,000 кадров/сек
Цветовое пространство : YUV
Субдискретизация насыщенности : 4:2:0
Битовая глубина : 8 бит
Тип развёртки : Прогрессивная
Метод сжатия : С потерями
Бит/(Пиксели*Кадры) : 0.222
Размер потока : 313 Мбайт (89%)
Библиотека кодирования : XviD 73

Аудио
Идентификатор : 1
Формат : AC-3
Формат/Информация : Audio Coding 3
Расширение режима : CM (complete main)
Параметр Endianness формата : Big
Идентификатор кодека : 2000
Продолжительность : 27 м. 21 с.
Вид битрейта : Постоянный
Битрейт : 192 Кбит/сек
Каналы : 2 канала
Расположение каналов : Front: L R
Частота : 48,0 КГц
Частота кадров : 31,250 кадров/сек (1536 spf)
Метод сжатия : С потерями
Размер потока : 37,6 Мбайт (11%)
Выравнивание : Разделение по промежуткам
Продолжительность промежутка : 40 мс. (1,00 видеокадр)
Время предзагрузки промежутка : 500 мс.

При каждом добавлении создаётся новый торрент. Чтобы начать докачку новой серии, пользователям необходимо сделать следующее:
- остановить скачивание;
- удалить старый торрент у себя из клиента (старые серии удалять не надо);
- скачать новый торрент и запустить его у себя в клиенте вместо старого, при этом указать клиенту путь в старую папку, куда и должно происходить скачивание новых серий.
piratbit.ga



Скачать Триада через торрент https://img15.lostpic.net/2019/09/30/a709a8d8bb92ee0f30ba513688b87526.th.jpg Скачать фильм Триада через торрент бесплантно в хорошем качестве Описание: Толя никак не может выбрать между любовницей и женой, с которой у них много лет не получается родить ребенка. Лучший друг ... 10 10 6
Торрент: Зарегистрирован [2019-10-19 11:49] · скачан: 5 раз
Статус: √ проверено
Размер: 4.31 GB
Как cкачать? Как скачать Триада через торрент | qTorrent

% Раздел Тема Автор DL S | L
TNT serials [ 5.25 GB ] Триада / Сезон: 1 / Серии: 1-14 из 16 [2019 HDTVRip-AVC] bober100 Скачать
4 | 2
TNT serials [ 14.36 GB ] Триада / Сезон: 1 / Серии: 1-14 из 16 [2019 HDTV 1080i] bober100 Скачать
9 | 18
TNT serials [ 11.28 GB ] Триада / Сезон: 1 / Серии: 1-14 из 16 [2019 WEB-DL 1080p] bober100 Скачать
4 | 8
TNT serials [ 4.79 GB ] Триада / Сезон: 1 / Серии: 1-14 из 16 [2019 WEB-DLRip] bober100 Скачать
12 | 14
TNT serials [ 6.73 GB ] Триада / Сезон: 1 / Серии: 1-14 из 16 [2019 WEB-DL 720p] bober100 Скачать
6 | 11
TNT serials [ 6.61 GB ] Триада / Сезон: 1 / Серии: 1-14 из 16 [2019 WEB-DLRip-AVC] bober100 Скачать
4 | 3


>> Регистрируемся здесь <<






Отзывы и комментарии о схеме читаем и пишем здесь: ---> Отзывы и комментарии о схеме

Новые благодарочки в телеграм довольных пользователей:
скриншот   скриншот   скриншот   скриншот   скриншот
    Дорогой пользователь! Огромная просьба, поблагодарите релизера, оцените раздачу и оставьте свои комментарий, если Вы скачали Триада через торрент бесплатно! Внесите свою лепту в развитие PiratBit!
    Комментировать посты могут только пользователи прошедшие не сложную регистрацию
    Показать сообщения:    

    Триада через торрент
    Скачать бесплатно Триада
    Триада скачать торрент
    Триада смотреть онлайн
    Cкачать фильм Триада бесплатно
    Триада скачать торрент в хорошем качестве
    Триада смотреть онлайн бесплатно в хорошем качестве


    Вы не можете начинать темы
    Вы не можете отвечать на сообщения
    Вы не можете редактировать свои сообщения
    Вы не можете удалять свои сообщения
    Вы не можете голосовать в опросах
    Вы не можете прикреплять файлы к сообщениям
    Вы можете скачивать файлы