MEGA NEWS Получи личный уникальный адрес сайта и защити себя от блокировок. Внимание количество ограничено!!!

iTunes

1+1

iTunes

мы

iTunes

1

iTunes

Чернобыль

iTunes

Ральф против интернета

Лицензия

ПШазам

Лицензия

Игра престолов

Лицензия

30
pack

ВАЖНО

!!Акция!!

Alien_RageХит недели

RePack

Resident Evil 21

ИГРА 18+

pack

RePack

Metro:Exodus

!!Акция!!

Alien_Rage

RePack

fifa19

RePack

Assassins Creed: Odyssey

RePack

NEED FOR SPEED™ PAYBACK

3 сезон

9 сезон

Бесстыжие 9 сезон

Все сериалы

все сериалы на PB.wtf

RePack

FAR CRY 5
Ребята, катастрофически не хватает 1900р. для оплаты серверов за АВГУСТ (всвязи с блокировками трафик упал в 3 раза), 1-2р., выручайте.
  

911 служба спасения / 9-1-1 / Сезон: 3 / Серии: 1-3 из 18 (Брэдли Букер) [2019, Драма, WEB-DL 1080p] MVO [HDRezka studio] piratbit.ga

911 служба спасения через торрент piratbit.ga

Раздают: 1 [ 18 KB/s ]
Размер: 9.56 GB | Добавлен: 10 д. назад | Торрент скачан:2 раза
Скачать  

25-09-2019 11:07 911 служба спасения Скачать торрент  

911 служба спасения / 9-1-1
Год выпуска: 2019
Страна: США
Жанр: Драма
Продолжительность: ~ 00:50:00 серия
Перевод: Профессиональный (многоголосый) | HDRezka Studio
Субтитры: Английские

Режиссер: Брэдли Букер

rating

В ролях: Анджела Бассетт, Питер Краузе, Оливер Старк, Конни Бриттон, Аиша Хайндс, Кеннет Чои, Рокмонд Данбар, Мэриетт Хартли, Коко Браун, Корина Мессиа, Маркантони Реис, Алекс Лойназ, Гэвин Стенхаус, Трэйси Томс, Эбби Браммелл, Джон Маршалл Джонс, Даг Сэвант, Тодд Уильямс, Дженнея Уолтон, Рэйчел Бритаг, Бриэль Барбаска, МакКинли Фриман, Меган Фергюсон, Аливия Элин Линд

Описание: Сериал расскажет о работе полицейских, «Скорой помощи» и пожарной службы. Все они выполняют свой долг, часто рискуя жизнью и попадая в самые пугающие и шокирующие ситуации. Смысл их ежедневной работы состоит в охране безопасности улиц и помощи всем, кто в ней нуждается. Полицейские, пожарные и парамедики работают бок о бок в жестких условиях большого города. Эти экстренные службы должны стараться балансировать, спасая тех, кто находится в наиболее уязвимом положении, и при этом решать проблемы в их собственной жизни.

Качество: WEB-DL 1080p
Формат: MKV

Видео: 1920x1080 (16:9), 23,976 fps, AVC (х264), High@L4, ~9439 kbps avg, 0.190 bit/pixel
Аудио#1 RUS: 48 kHz, AC3 Dolby Digital, 2/0 (L,R) ch, ~384 kbps avg
Аудио#2 ENG: 48 kHz, Е-AC3 Dolby Digital, 3/2 (L,C,R,l,r) + LFE ch, ~640 kbps avg
скриншот   скриншот   скриншот   скриншот   скриншот  

Общее
Уникальный идентификатор : 227888085670287462277788924852249399078 (0xAB71A618D0AD3B3DD12C50EAF7C18F26)
Полное имя : 9-1-1.S03Е01.AMZN.1080p.WEB-DL.HDRezka.mkv
Формат : Matroska
Версия формата : Version 4
Размер файла : 3,18 Гбайт
Продолжительность : 43 м. 28 с.
Общий поток : 10,5 Мбит/сек
Дата кодирования : UTC 2019-09-25 09:35:54
Программа кодирования : mkvmerge v37.0.0 ('Leave It') 64-bit
Библиотека кодирования : libebml v1.3.9 + libmatroska v1.5.2

Видео
Идентификатор : 1
Формат : AVC
Формат/Информация : Advanced Video Codec
Профиль формата : High@L4
Настройки формата : CABAC / 4 Ref Frames
Параметр CABAC формата : Да
Параметр RefFrames формата : 4 кадра
Идентификатор кодека : V_MPEG4/ISO/AVC
Продолжительность : 43 м. 28 с.
Вид битрейта : Постоянный
Битрейт : 9439 Кбит/сек
Номинальный битрейт : 10000 Кбит/сек
Ширина : 1920 пикселей
Высота : 1080 пикселей
Соотношение сторон : 16:9
Режим частоты кадров : Постоянный
Частота кадров : 23,976 (24000/1001) кадра/сек
Цветовое пространство : YUV
Субдискретизация насыщенности : 4:2:0
Битовая глубина : 8 бит
Тип развёртки : Прогрессивная
Бит/(Пиксели*Кадры) : 0.190
Размер потока : 2,87 Гбайт (90%)
Default : Да
Forced : Нет
Цветовой диапазон : Limited
Основные цвета : BT.709
Характеристики трансфера : BT.709
Коэффициенты матрицы : BT.709

Аудио #1
Идентификатор : 2
Формат : AC-3
Формат/Информация : Audio Coding 3
Коммерческое название : Dolby Digital
Идентификатор кодека : A_AC3
Продолжительность : 43 м. 28 с.
Вид битрейта : Постоянный
Битрейт : 384 Кбит/сек
Каналы : 2 канала
ChannelLayout : L R
Частота : 48,0 КГц
Частота кадров : 31,250 кадров/сек (1536 SPF)
Метод сжатия : С потерями
Размер потока : 119 Мбайт (4%)
Заголовок : HDRezka
Язык : Russian
Default : Да
Forced : Нет

Аудио #2
Идентификатор : 3
Формат : E-AC-3
Формат/Информация : Enhanced AC-3
Коммерческое название : Dolby Digital Plus
Идентификатор кодека : A_EAC3
Продолжительность : 43 м. 28 с.
Вид битрейта : Постоянный
Битрейт : 640 Кбит/сек
Каналы : 6 каналов
ChannelLayout : L R C LFE Ls Rs
Частота : 48,0 КГц
Частота кадров : 31,250 кадров/сек (1536 SPF)
Метод сжатия : С потерями
Размер потока : 199 Мбайт (6%)
Язык : English
Default : Нет
Forced : Нет

Текст
Идентификатор : 4
Формат : UTF-8
Идентификатор кодека : S_TEXT/UTF8
Идентификатор кодека/Информация : UTF-8 Plain Text
Продолжительность : 43 м. 25 с.
Битрейт : 97 бит/сек
ElementCount : 1038
Размер потока : 31,0 Кбайт (0%)
Заголовок : SDH
Язык : English
Default : Нет
Forced : Нет

Раздача ведётся путём добавления новых серий; при каждом добавлении создаётся новый торрент.
Чтобы начать докачку новой серии, пользователям необходимо сделать следующее:
1. остановить скачивание,
2. удалить старый торрент у себя из клиента (старые серии удалять не надо),
3. скачать новый торрент и запустить его у себя в клиенте вместо старого, при этом указать клиенту путь в старую папку, куда и должно происходить скачивание новых серий.

Ваш клиент при этом должен произвести хеширование (проверку) старой папки (если не производит сам - помогите ему сделать это), и будет докачивать только те серии которых у вас ещё нет. Старые серии при этом не удаляются, а продолжают раздаваться!

Eсли вы уже удалили старые серии, то предотвратить повторную закачку старых серий можно, отжав галочку в соответствующих местах при запуске нового торрента. По возможности, желательно не удалять старые серии как можно дольше, чтобы релизёр не столько продолжал раздавать старые серии, а смог сконцентрироваться на новых.

Совет для тех, кто не хочет ждать перехеширования:
Создайте ещё одну папку рядом с папкой сериала (рядом, а не в ней!!!). Каждую новую серию после удачной загрузки копируйте в новую папку так чтобы ваша основная папка всегда была пуста. Когда ваш новый торрент предложит вам закачать все файлы, выберете только последнюю. Для сидирования же укажите адрес новой папки.

Как закачать отдельный файл из торрента или докачать ранее пропущенные файлы торрента!
piratbit.ga



Скачать 911 служба спасения через торрент https://i5.imageban.ru/out/2018/10/23/45675a08848e10ec0c0c427667c858dd.jpg Скачать фильм 911 служба спасения через торрент бесплантно в хорошем качестве Описание: Сериал расскажет о работе полицейских, «Скорой помощи» и пожарной службы. Все они выполняют свой долг, часто рискуя жизнью и ... 10 10 3
Торрент: Зарегистрирован [2019-10-09 18:07] · скачан: 2 раз
Статус: √ проверено
Размер: 9.56 GB
Как cкачать? Как скачать 911 служба спасения через торрент | qTorrent

% Раздел Тема Автор DL S | L
Зарубежные сериалы [ 9.56 GB ] 911 служба спасения / 9-1-1 / Сезон: 3 / Серии: 1-3 из 18 [2019 WEB-DL 1080p] MVO [TVShows] bober100 Скачать
2 | 0
Зарубежные сериалы [ 3.26 GB ] 911 служба спасения / 9-1-1 / Сезон: 3 / Серии: 1- из 18 [2019 WEB-DL 1080p] MVO [Lostfilm] bober100 Скачать
1 | 0


>> Регистрируемся здесь <<






Отзывы и комментарии о схеме читаем и пишем здесь: ---> Отзывы и комментарии о схеме

Новые благодарочки в телеграм довольных пользователей:
скриншот   скриншот   скриншот   скриншот   скриншот
    Дорогой пользователь! Огромная просьба, поблагодарите релизера, оцените раздачу и оставьте свои комментарий, если Вы скачали 911 служба спасения через торрент бесплатно! Внесите свою лепту в развитие PiratBit!
    Комментировать посты могут только пользователи прошедшие не сложную регистрацию
    Показать сообщения:    

    911 служба спасения через торрент
    Скачать бесплатно 911 служба спасения
    911 служба спасения скачать торрент
    911 служба спасения смотреть онлайн
    Cкачать фильм 911 служба спасения бесплатно
    911 служба спасения скачать торрент в хорошем качестве
    911 служба спасения смотреть онлайн бесплатно в хорошем качестве


    Вы не можете начинать темы
    Вы не можете отвечать на сообщения
    Вы не можете редактировать свои сообщения
    Вы не можете удалять свои сообщения
    Вы не можете голосовать в опросах
    Вы не можете прикреплять файлы к сообщениям
    Вы можете скачивать файлы