MEGA NEWS Получи личный уникальный адрес сайта и защити себя от блокировок. Внимание количество ограничено!!!

iTunes

1+1

iTunes

мы

iTunes

1

iTunes

Чернобыль

iTunes

Ральф против интернета

Лицензия

ПШазам

Лицензия

Игра престолов

Лицензия

30
pack

ВАЖНО

!!Акция!!

Alien_RageХит недели

RePack

Resident Evil 21

ИГРА 18+

pack

RePack

Metro:Exodus

!!Акция!!

Alien_Rage

RePack

fifa19

RePack

Assassins Creed: Odyssey

RePack

NEED FOR SPEED™ PAYBACK

3 сезон

9 сезон

Бесстыжие 9 сезон

Все сериалы

все сериалы на PB.wtf

RePack

FAR CRY 5
Ребята, катастрофически не хватает 1900р. для оплаты серверов за АВГУСТ (всвязи с блокировками трафик упал в 3 раза), 1-2р., выручайте.
  

Красная королева убивает семь раз / La Dama Rossa Uccide Sette Volte (Эмилио Миралья) [1972, ужасы, криминал, детектив, триллер, BDRip 720p by msltel] 2 x VO piratbit.ga

Красная королева убивает семь раз через торрент piratbit.ga

Раздают: 5 [ 0 KB/s ]
Размер: 3.53 GB | Добавлен: 1 мес. 3 д. назад | Торрент скачан:31 раз
Скачать  

13-09-2019 11:40 Красная королева убивает семь раз Скачать торрент  

Название: Красная королева убивает семь раз
Оригинальное название: La Dama Rossa Uccide Sette Volte
Год выпуска: 1972
Страна: Италия, Германия (ФРГ), Монако
Жанр: ужасы, криминал, детектив, триллер
Продолжительность: 01:39:15
Перевод: закадровый одноголосый

Режиссер: Эмилио Миралья
В ролях: Барбара Буше, Уго Пальяи, Марина Малфатти, Марино Мазе, Пиа Джанкаро, Сибил Дэннинг, Нино Корда, Фабрицио Мореско, Рудольф Шюндлер, Мария Антониетта Гуидо

О фильме: Над дворянским родом Вильденбруков довлеет давнее проклятье. Много столетий назад между двумя сёстрами, Красной и Чёрной королевами, шла непримиримая вражда, которая закончилась тем, что Чёрная королева убила Красную, нанеся последней семь ножевых ранений. Красная королева восстала из мёртвых и убила Чёрную королеву, а также ещё шестерых связанных с ней людей, дабы возместить всё количество полученных смертельных ранений. С тех пор обстоятельства противостояния Красной и Чёрной королев повторяются каждые сто лет. Наконец настал очередной период возобновления действия давнего проклятья. Мартин Хофман пытается защитить свою невесту Китти Вильденбрук от родового проклятья...



Качество: BDRip 720p
Формат: MKV
Видео: MPEG-4 AVC, 4515 Кбит/с, 1280x544
Аудио 1: русский, AC3, 192 kbps, 2 ch, 48 kHz [закадровый одноголосый, Немахов? Тимофеев?]
Аудио 2: русский, AC3, 192 kbps, 2 ch, 48 kHz [закадровый одноголосый, cmert]
Аудио 3: итальянский, AC3, 192 kbps, 1 ch, 48 kHz [оригинал]
Субтитры 1: русские
Субтитры 2: английские
Главы/чаптеры
Общее
Уникальный идентификатор : 208798384332469315460383733791955522950 (0x9D151B27923676FFA0180D0451629586)
Полное имя : D:\Video\Красная королева убивает семь раз.1972.BDRip 720p by msltel.mkv
Формат : Matroska
Версия формата : Version 4
Размер файла : 3,53 Гбайт
Продолжительность : 1 ч. 39 м.
Общий поток : 5091 Кбит/сек
Название фильма : Rip by msltel
Дата кодирования : UTC 2019-09-13 10:25:50
Программа кодирования : mkvmerge v8.2.0 ('World of Adventure') 64bit
Библиотека кодирования : libebml v1.3.1 + libmatroska v1.4.2

Видео
Идентификатор : 1
Формат : AVC
Формат/Информация : Advanced Video Codec
Профиль формата : High@L4.1
Настройки формата : CABAC / 9 Ref Frames
Параметр CABAC формата : Да
Параметр RefFrames формата : 9 кадров
Идентификатор кодека : V_MPEG4/ISO/AVC
Продолжительность : 1 ч. 39 м.
Битрейт : 4515 Кбит/сек
Ширина : 1280 пикселей
Высота : 544 пикселя
Соотношение сторон : 2,35:1
Режим частоты кадров : Постоянный
Частота кадров : 23,976 (24000/1001) кадра/сек
Цветовое пространство : YUV
Субдискретизация насыщенности : 4:2:0
Битовая глубина : 8 бит
Тип развёртки : Прогрессивная
Бит/(Пиксели*Кадры) : 0.270
Размер потока : 3,13 Гбайт (89%)
Библиотека кодирования : x264 core 157 r2935 545de2f
Настройки программы : cabac=1 / ref=9 / deblock=1:-2:-2 / analyse=0x3:0x113 / me=umh / subme=11 / psy=1 / psy_rd=1.00:0.15 / mixed_ref=1 / me_range=32 / chroma_me=1 / trellis=2 / 8x8dct=1 / cqm=0 / deadzone=21,11 / fast_pskip=0 / chroma_qp_offset=-3 / threads=6 / lookahead_threads=1 / sliced_threads=0 / nr=0 / decimate=1 / interlaced=0 / bluray_compat=0 / constrained_intra=0 / bframes=13 / b_pyramid=2 / b_adapt=2 / b_bias=0 / direct=1 / weightb=1 / open_gop=0 / weightp=2 / keyint=230 / keyint_min=23 / scenecut=40 / intra_refresh=0 / rc_lookahead=40 / rc=crf / mbtree=1 / crf=20.0 / qcomp=0.60 / qpmin=0 / qpmax=69 / qpstep=4 / vbv_maxrate=50000 / vbv_bufsize=62500 / crf_max=0.0 / nal_hrd=none / filler=0 / ip_ratio=1.40 / aq=1:1.00
Язык : Italian
Default : Да
Forced : Нет

Аудио #1
Идентификатор : 2
Формат : AC-3
Формат/Информация : Audio Coding 3
Коммерческое название : Dolby Digital
Идентификатор кодека : A_AC3
Продолжительность : 1 ч. 39 м.
Вид битрейта : Постоянный
Битрейт : 192 Кбит/сек
Каналы : 2 канала
ChannelLayout : L R
Частота : 48,0 КГц
Частота кадров : 31,250 кадров/сек (1536 SPF)
Метод сжатия : С потерями
Размер потока : 136 Мбайт (4%)
Заголовок : Немахов? Тимофеев?
Язык : Russian
ServiceKind/String : Complete Main
Default : Да
Forced : Нет

Аудио #2
Идентификатор : 3
Формат : AC-3
Формат/Информация : Audio Coding 3
Коммерческое название : Dolby Digital
Идентификатор кодека : A_AC3
Продолжительность : 1 ч. 39 м.
Вид битрейта : Постоянный
Битрейт : 192 Кбит/сек
Каналы : 2 канала
ChannelLayout : L R
Частота : 48,0 КГц
Частота кадров : 31,250 кадров/сек (1536 SPF)
Метод сжатия : С потерями
Размер потока : 136 Мбайт (4%)
Заголовок : cmert
Язык : Russian
ServiceKind/String : Complete Main
Default : Нет
Forced : Нет

Аудио #3
Идентификатор : 4
Формат : AC-3
Формат/Информация : Audio Coding 3
Коммерческое название : Dolby Digital
Идентификатор кодека : A_AC3
Продолжительность : 1 ч. 39 м.
Вид битрейта : Постоянный
Битрейт : 192 Кбит/сек
Каналы : 1 канал
ChannelLayout : C
Частота : 48,0 КГц
Частота кадров : 31,250 кадров/сек (1536 SPF)
Метод сжатия : С потерями
Размер потока : 136 Мбайт (4%)
Заголовок : original
Язык : Italian
ServiceKind/String : Complete Main
Default : Нет
Forced : Нет

Текст #1
Идентификатор : 5
Формат : UTF-8
Идентификатор кодека : S_TEXT/UTF8
Идентификатор кодека/Информация : UTF-8 Plain Text
Продолжительность : 1 ч. 37 м.
Битрейт : 87 бит/сек
ElementCount : 1071
Размер потока : 62,5 Кбайт (0%)
Заголовок : русские
Язык : Russian
Default : Нет
Forced : Нет

Текст #2
Идентификатор : 6
Формат : UTF-8
Идентификатор кодека : S_TEXT/UTF8
Идентификатор кодека/Информация : UTF-8 Plain Text
Продолжительность : 1 ч. 37 м.
Битрейт : 64 бит/сек
ElementCount : 1254
Размер потока : 45,8 Кбайт (0%)
Заголовок : английские
Язык : English
Default : Нет
Forced : Нет

Меню
00:00:00.000 : en:00:00:00.000
00:06:39.190 : en:00:06:39.190
00:13:02.657 : en:00:13:02.657
00:21:27.786 : en:00:21:27.786
00:30:25.157 : en:00:30:25.157
00:40:39.354 : en:00:40:39.354
00:49:06.902 : en:00:49:06.902
00:57:17.476 : en:00:57:17.476
01:04:12.557 : en:01:04:12.557
01:12:42.525 : en:01:12:42.525
01:24:17.636 : en:01:24:17.636
01:30:23.960 : en:01:30:23.960
piratbit.ga



Скачать Красная королева убивает семь раз через торрент https://d.radikal.ru/d41/1909/aa/2868d3616d86.jpg Скачать фильм Красная королева убивает семь раз через торрент бесплантно в хорошем качестве О фильме: Над дворянским родом Вильденбруков довлеет давнее проклятье. Много столетий назад между двумя сёстрами, Красной и Чёрной ... 9.8 10 5
Info! Золотая раздача, скачанное не засчитывается.
Торрент: Зарегистрирован [2019-09-13 11:40] · скачан: 31 раз
Статус: √ проверено
Размер: 3.53 GB
Как cкачать? Как скачать Красная королева убивает семь раз через торрент | qTorrent

% Раздел Тема Автор DL S | L
Фильмы [HD 720p, 1080p] (Звук Cam, VO, DVO) [ 9.32 GB ] Красная королева убивает семь раз / La Dama Rossa Uccide Sette Volte [1972 BDRip 1080p by msltel] 2 x VO msltel Скачать
1 | 0


>> Регистрируемся здесь <<






Отзывы и комментарии о схеме читаем и пишем здесь: ---> Отзывы и комментарии о схеме

Новые благодарочки в телеграм довольных пользователей:
скриншот   скриншот   скриншот   скриншот   скриншот
    Дорогой пользователь! Огромная просьба, поблагодарите релизера, оцените раздачу и оставьте свои комментарий, если Вы скачали Красная королева убивает семь раз через торрент бесплатно! Внесите свою лепту в развитие PiratBit!
    Комментировать посты могут только пользователи прошедшие не сложную регистрацию
    Показать сообщения:    

    Красная королева убивает семь раз через торрент
    Скачать бесплатно Красная королева убивает семь раз
    Красная королева убивает семь раз скачать торрент
    Красная королева убивает семь раз смотреть онлайн
    Cкачать фильм Красная королева убивает семь раз бесплатно
    Красная королева убивает семь раз скачать торрент в хорошем качестве
    Красная королева убивает семь раз смотреть онлайн бесплатно в хорошем качестве


    Вы не можете начинать темы
    Вы не можете отвечать на сообщения
    Вы не можете редактировать свои сообщения
    Вы не можете удалять свои сообщения
    Вы не можете голосовать в опросах
    Вы не можете прикреплять файлы к сообщениям
    Вы можете скачивать файлы