MEGA SALE -50% FORZA HORIZON 4 ULTIMATE+ВСЕ DLC+ОНЛАЙН всего за 599р. 299 руб. (супер цена). Внимание количество ограничено!!!

iTunes

1+1

iTunes

мы

iTunes

1

iTunes

Чернобыль

iTunes

Ральф против интернета

Лицензия

ПШазам

Лицензия

Игра престолов

Лицензия

30
pack

ВАЖНО

!!Акция!!

Alien_RageХит недели

RePack

Resident Evil 21

ИГРА 18+

pack

RePack

Metro:Exodus

!!Акция!!

Alien_Rage

RePack

fifa19

RePack

Assassins Creed: Odyssey

RePack

NEED FOR SPEED™ PAYBACK

3 сезон

9 сезон

Бесстыжие 9 сезон

Все сериалы

все сериалы на PB.wtf

RePack

FAR CRY 5
Ребята, катастрофически не хватает 7730р. для оплаты серверов за АВГУСТ (всвязи с блокировками трафик упал в 3 раза), 1-2р., выручайте.
  

Казино / Casino (Мартин Скорсезе) [1995, Драма, криминал, UHD BDRip 2160p] DVO [Лицензия] +3xAVO piratbit.ga

Казино через торрент piratbit.ga

Раздают: 2 [ 866 KB/s ]
Размер: 43.33 GB | Добавлен: 4 д. назад | Торрент скачан:6 раз
Скачать  

11-09-2019 12:56 Казино Скачать торрент  

Казино / Casino
Год выпуска: 1995
Страна: США
Жанр: Драма, криминал
Продолжительность: 02:58:33
Перевод:

#1: Профессиональный двухголосый | Blu Ray CEE
#2: Авторский | Гаврилов
#3: Авторский | Живов
#4: Авторский | Карцев

Субтитры: Русские (Forced, full), английские

Режиссер: Мартин Скорсезе

rating

В ролях: Роберт Де Ниро, Шэрон Стоун, Джо Пеши, Джеймс Вудс, Фрэнк Винсент, Паскуале Кайано, Кевин Поллак, Дон Риклз, Винни Велла, Алан Кинг, Дик Смотерз, Джозеф Ригано, Джон Блум, Мелисса Профет, Билл Эллисон, Джин Руффини, Доминик Греко, Эрика Фон Таген, Катрин Скорсезе, Филип Суриано, Ричард Амалфитано, Ричард Ф. Страфелла, Каспер Моли, Дэвид Ливитт, Питер Конти, Кэти Скорсезе

Описание: Никто не может сравниться с Сэмом Ротстином. Никто не умеет зарабатывать деньги, как он. Никто не умеет работать так самоотверженно и аккуратно, как трудяга Сэм. За свои неоспоримые достоинства Ротстин получил кличку «Ас». И именно поэтому боссы мафии решили отправить Асса заправлять огромным шикарным казино в Лас-Вегасе. А чтобы Сэму никто не мешал работать, мафиози отправили вслед за Ассом друга детства Ротстина — Никки Санторо, отпетого бандита и безжалостного головореза. В Лас-Вегасе Ас как всегда с блеском выполнял свою работу: Казино процветало, водопад денег беспрестанно лился в карманы довольных гангстеров-покровителей. Городские заправилы находились на довольствии у мафии, полицейские и суды были куплены, и, казалось ничто не может омрачить жизнь Асса. Но Господь распорядился иначе. Несокрушимой империи Сэма было суждено утонуть в трагедии и крови. Экранизация по произведению Николаса Пиледжи.

Качество: UHD BDRip 2160p
Формат: MKV

Видео: HEVC HDR, 18.0 Мбит/с, 3840х1636, 23.976 кадр/с, 10 Бит
Аудио #01: 48 kHz, DTS, 5.1, 768 Kbps | Blu Ray CEE | RUS |
Аудио #02: 48 kHz, DTS-HD MA, 5.1, 4188 Kbps | Гаврилов | RUS |
Аудио #03: 48 kHz, DTS-HD MA, 5.1, 4163 Kbps | Живов | RUS |
Аудио #04: 48 kHz, DTS-HD MA, 5.1, 4165 Kbps | Карцев | RUS |
Аудио #05: 48 kHz, DTS-HD MA, 7.1, 3508 Kbps | Оригинал | ENG |
скриншот  скриншот  скриншот  

скриншот  скриншот  скриншот  

Общее
Уникальный идентификатор : 194021265633891391663779918957004342622 (0x91F722F3D75BFA8C8C5A07BD8F32455E)
Полное имя : D:\Передел\Casino.1995.BDRip.2160p.x265.10bit.HDR.Master5.mkv
Формат : Matroska
Версия формата : Version 4
Размер файла : 43,3 Гбайт
Продолжительность : 2 ч. 58 м.
Режим общего битрейта : Переменный
Общий поток : 34,7 Мбит/сек
Название фильма : Casino.1995.BDRip.2160p.x265.10bit.HDR.Master5
Дата кодирования : UTC 2019-09-11 11:01:31
Программа кодирования : mkvmerge v7.9.0 ('Birds') 64bit
Библиотека кодирования : libebml v1.3.1 + libmatroska v1.4.2

Видео
Идентификатор : 1
Формат : HEVC
Формат/Информация : High Efficiency Video Coding
Коммерческое название : HDR10
Профиль формата : Main 10@L5.1@High
Идентификатор кодека : V_MPEGH/ISO/HEVC
Продолжительность : 2 ч. 58 м.
Битрейт : 18,0 Мбит/сек
Ширина : 3840 пикселей
Высота : 1636 пикселей
Соотношение сторон : 2,35:1
Режим частоты кадров : Постоянный
Частота кадров : 23,976 (24000/1001) кадра/сек
Цветовое пространство : YUV
Субдискретизация насыщенности : 4:2:0 (Type 2)
Битовая глубина : 10 бит
Бит/(Пиксели*Кадры) : 0.119
Размер потока : 22,4 Гбайт (52%)
Заголовок : Casino.1995.BDRip.2160p.x265.10bit.HDR.Master5
Библиотека кодирования : x265 3.1+14-f08461fdae33:[Windows][GCC 9.2.0][64 bit] 10bit
Настройки программы : cpuid=1111039 / frame-threads=5 / numa-pools=36 / wpp / no-pmode / no-pme / no-psnr / no-ssim / log-level=2 / input-csp=1 / input-res=3840x1636 / interlace=0 / total-frames=256391 / level-idc=51 / high-tier=1 / uhd-bd=0 / ref=4 / no-allow-non-conformance / repeat-headers / annexb / aud / hrd / info / hash=0 / no-temporal-layers / no-open-gop / min-keyint=1 / keyint=24 / gop-lookahead=0 / bframes=4 / b-adapt=2 / b-pyramid / bframe-bias=0 / rc-lookahead=25 / lookahead-slices=4 / scenecut=40 / radl=0 / no-splice / no-intra-refresh / ctu=64 / min-cu-size=8 / rect / no-amp / max-tu-size=32 / tu-inter-depth=1 / tu-intra-depth=1 / limit-tu=0 / rdoq-level=2 / dynamic-rd=0.00 / no-ssim-rd / signhide / no-tskip / nr-intra=0 / nr-inter=0 / no-constrained-intra / no-strong-intra-smoothing / max-merge=3 / limit-refs=3 / limit-modes / me=3 / subme=3 / merange=57 / temporal-mvp / no-hme / weightp / no-weightb / no-analyze-src-pics / deblock=-3:-3 / no-sao / no-sao-non-deblock / rd=4 / no-early-skip / rskip / no-fast-intra / no-tskip-fast / no-cu-lossless / no-b-intra / no-splitrd-skip / rdpenalty=0 / psy-rd=2.00 / psy-rdoq=1.00 / no-rd-refine / no-lossless / cbqpoffs=0 / crqpoffs=0 / rc=crf / crf=17.0 / qcomp=0.60 / qpstep=4 / stats-write=0 / stats-read=0 / vbv-maxrate=160000 / vbv-bufsize=160000 / vbv-init=0.9 / crf-max=0.0 / crf-min=0.0 / ipratio=1.40 / pbratio=1.30 / aq-mode=2 / aq-strength=1.00 / cutree / zone-count=0 / no-strict-cbr / qg-size=32 / no-rc-grain / qpmax=69 / qpmin=0 / no-const-vbv / sar=1 / overscan=0 / videoformat=5 / range=0 / colorprim=9 / transfer=16 / colormatrix=9 / chromaloc=1 / chromaloc-top=2 / chromaloc-bottom=2 / display-window=0 / master-display=G(13250,34500)B(7500,3000)R(34000,16000)WP(15635,16450)L(10000000,50)cll=1000,243 / min-luma=0 / max-luma=1023 / log2-max-poc-lsb=8 / vui-timing-info / vui-hrd-info / slices=1 / no-opt-qp-pps / no-opt-ref-list-length-pps / no-multi-pass-opt-rps / scenecut-bias=0.05 / no-opt-cu-delta-qp / no-aq-motion / hdr / hdr-opt / no-dhdr10-opt / no-idr-recovery-sei / analysis-reuse-level=5 / scale-factor=0 / refine-intra=0 / refine-inter=0 / refine-mv=0 / refine-ctu-distortion=0 / no-limit-sao / ctu-info=0 / no-lowpass-dct / refine-analysis-type=0 / copy-pic=1 / max-ausize-factor=1.0 / no-dynamic-refine / no-single-sei / no-hevc-aq / no-svt / no-field / qp-adaptation-range=1.00
Default : Да
Forced : Нет
Цветовой диапазон : Limited
Основные цвета : BT.2020
Характеристики трансфера : PQ
Коэффициенты матрицы : BT.2020 non-constant
MasteringDisplay_ColorPrimaries : Display P3
MasteringDisplay_Luminance : min: 0.0050 cd/m2, max: 1000 cd/m2
MaxCLL : 1000 cd/m2
MaxFALL : 243 cd/m2

Аудио #1
Идентификатор : 2
Формат : DTS
Формат/Информация : Digital Theater Systems
Идентификатор кодека : A_DTS
Продолжительность : 2 ч. 58 м.
Вид битрейта : Постоянный
Битрейт : 768 Кбит/сек
Каналы : 6 каналов
Channel layout : C L R Ls Rs LFE
Частота : 48,0 КГц
Частота кадров : 93,750 кадра/сек (512 SPF)
Битовая глубина : 24 бит
Метод сжатия : С потерями
Размер потока : 981 Мбайт (2%)
Заголовок : DVO CEE
Язык : Russian
Default : Да
Forced : Да

Аудио #2
Идентификатор : 3
Формат : DTS XLL
Формат/Информация : Digital Theater Systems
Коммерческое название : DTS-HD Master Audio
Идентификатор кодека : A_DTS
Продолжительность : 2 ч. 58 м.
Вид битрейта : Переменный
Битрейт : 4188 Кбит/сек
Каналы : 6 каналов
Channel layout : C L R Ls Rs LFE
Частота : 48,0 КГц
Частота кадров : 93,750 кадра/сек (512 SPF)
Битовая глубина : 24 бит
Метод сжатия : Без потерь
Размер потока : 5,22 Гбайт (12%)
Заголовок : AVO Gavrilov
Язык : Russian
Default : Нет
Forced : Нет

Аудио #3
Идентификатор : 4
Формат : DTS XLL
Формат/Информация : Digital Theater Systems
Коммерческое название : DTS-HD Master Audio
Идентификатор кодека : A_DTS
Продолжительность : 2 ч. 58 м.
Вид битрейта : Переменный
Битрейт : 4163 Кбит/сек
Каналы : 6 каналов
Channel layout : C L R Ls Rs LFE
Частота : 48,0 КГц
Частота кадров : 93,750 кадра/сек (512 SPF)
Битовая глубина : 24 бит
Метод сжатия : Без потерь
Размер потока : 5,19 Гбайт (12%)
Заголовок : AVO Zhivov
Язык : Russian
Default : Нет
Forced : Нет

Аудио #4
Идентификатор : 5
Формат : DTS XLL
Формат/Информация : Digital Theater Systems
Коммерческое название : DTS-HD Master Audio
Идентификатор кодека : A_DTS
Продолжительность : 2 ч. 58 м.
Вид битрейта : Переменный
Битрейт : 4165 Кбит/сек
Каналы : 6 каналов
Channel layout : C L R Ls Rs LFE
Частота : 48,0 КГц
Частота кадров : 93,750 кадра/сек (512 SPF)
Битовая глубина : 24 бит
Метод сжатия : Без потерь
Размер потока : 5,19 Гбайт (12%)
Заголовок : AVO Karcev
Язык : Russian
Default : Нет
Forced : Нет

Аудио #5
Идентификатор : 6
Формат : DTS XLL X
Формат/Информация : Digital Theater Systems
Коммерческое название : DTS-HD Master Audio
Идентификатор кодека : A_DTS
Продолжительность : 2 ч. 58 м.
Вид битрейта : Переменный
Битрейт : 3508 Кбит/сек
Каналы : 8 каналов
Channel(s)_Original : Object Based
Channel layout : Object Based
Частота : 48,0 КГц
Частота кадров : 93,750 кадра/сек (512 SPF)
Размер потока : 4,37 Гбайт (10%)
Заголовок : Original
Язык : English
Default : Нет
Forced : Нет

Текст #1
Идентификатор : 7
Формат : UTF-8
Идентификатор кодека : S_TEXT/UTF8
Идентификатор кодека/Информация : UTF-8 Plain Text
Продолжительность : 2 ч. 51 м.
Битрейт : 0 бит/сек
ElementCount : 24
Размер потока : 1,06 Кбайт (0%)
Заголовок : Forced
Язык : Russian
Default : Да
Forced : Да

Текст #2
Идентификатор : 8
Формат : UTF-8
Идентификатор кодека : S_TEXT/UTF8
Идентификатор кодека/Информация : UTF-8 Plain Text
Продолжительность : 2 ч. 51 м.
Битрейт : 147 бит/сек
ElementCount : 2739
Размер потока : 184 Кбайт (0%)
Заголовок : Full
Язык : Russian
Default : Нет
Forced : Нет

Текст #3
Идентификатор : 9
Формат : UTF-8
Идентификатор кодека : S_TEXT/UTF8
Идентификатор кодека/Информация : UTF-8 Plain Text
Продолжительность : 2 ч. 55 м.
Битрейт : 104 бит/сек
ElementCount : 3643
Размер потока : 134 Кбайт (0%)
Заголовок : Full
Язык : English
Default : Нет
Forced : Нет

Меню
00:00:00.000 : en:"When You Love Someone..." (Main Titles)
00:04:55.462 : en:The Truth About Vegas
00:21:58.192 : en:Ginger
00:27:49.543 : en:Nicky Comes to Town
00:33:46.650 : en:Yokels
00:38:57.126 : en:The Long Shot
00:58:22.999 : en:Banned From Las Vegas
01:06:11.134 : en:The New Boss of Las Vegas
01:26:24.513 : en:Leakage
01:31:49.546 : en:The Worst Possible Time
02:00:29.305 : en:Ginger and the Lowlife
02:14:10.209 : en:Nicky and Ginger
02:28:31.486 : en:A Dangerous Situation
02:39:55.586 : en:Everybody Began to Tumble...
02:46:56.340 : en:Enough of Nicky
02:50:12.077 : en:The Town Will Never Be the Same (End Titles)

piratbit.ga



Скачать Казино через торрент https://img16.lostpic.net/2019/09/09/f3bf2ac8cad1c7d3c742b90cbd25b1a3.jpg Скачать фильм Казино через торрент бесплантно в хорошем качестве Описание: Никто не может сравниться с Сэмом Ротстином. Никто не умеет зарабатывать деньги, как он. Никто не умеет работать так ... 10 10 2
Торрент: Зарегистрирован [2019-09-11 12:56] · скачан: 6 раз
Статус: √ проверено
Размер: 43.33 GB
Как cкачать? Как скачать Казино через торрент | qTorrent

% Раздел Тема Автор DL S | L
Ultra HD (UHD: 2K, 4K, 8K) — видео сверхвысокой чёткости [ 97.9 GB ] Казино / Casino [1995 UHD BDRemux 2160p] DVO [] +2xMVO+5xAVO bober100 Скачать
4 | 0
Фильмы [HD 720p, 1080p] (Хороший звук DUB, MVO) [ 13.11 GB ] Казино / Casino [1995 биография BDRip 720p от _denis_100 / NNNB] 2xMVO DVO 6xAVO _denis_100 Скачать
1 | 0


>> Регистрируемся здесь <<






Отзывы и комментарии о схеме читаем и пишем здесь: ---> Отзывы и комментарии о схеме

Новые благодарочки в телеграм довольных пользователей:
скриншот   скриншот   скриншот   скриншот   скриншот
    Дорогой пользователь! Огромная просьба, поблагодарите релизера, оцените раздачу и оставьте свои комментарий, если Вы скачали Казино через торрент бесплатно! Внесите свою лепту в развитие PiratBit!
    Комментировать посты могут только пользователи прошедшие не сложную регистрацию
    Показать сообщения:    

    Казино через торрент
    Скачать бесплатно Казино
    Казино скачать торрент
    Казино смотреть онлайн
    Cкачать фильм Казино бесплатно
    Казино скачать торрент в хорошем качестве
    Казино смотреть онлайн бесплатно в хорошем качестве


    Вы не можете начинать темы
    Вы не можете отвечать на сообщения
    Вы не можете редактировать свои сообщения
    Вы не можете удалять свои сообщения
    Вы не можете голосовать в опросах
    Вы не можете прикреплять файлы к сообщениям
    Вы можете скачивать файлы