MEGA SALE -50% FORZA HORIZON 4 ULTIMATE+ВСЕ DLC+ОНЛАЙН всего за 599р. 299 руб. (супер цена). Внимание количество ограничено!!!

iTunes

1+1

iTunes

мы

iTunes

1

iTunes

Чернобыль

iTunes

Ральф против интернета

Лицензия

ПШазам

Лицензия

Игра престолов

Лицензия

30
pack

ВАЖНО

!!Акция!!

Alien_RageХит недели

RePack

Resident Evil 21

ИГРА 18+

pack

RePack

Metro:Exodus

!!Акция!!

Alien_Rage

RePack

fifa19

RePack

Assassins Creed: Odyssey

RePack

NEED FOR SPEED™ PAYBACK

3 сезон

9 сезон

Бесстыжие 9 сезон

Все сериалы

все сериалы на PB.wtf

RePack

FAR CRY 5
Ребята, катастрофически не хватает 7730р. для оплаты серверов за АВГУСТ (всвязи с блокировками трафик упал в 3 раза), 1-2р., выручайте.
  

Маска / Mask (Питер Богданович) [1985, драма, биография, BDRip 1080p by msltel] DVO, AVO | Режиссёрская версия piratbit.ga

Маска через торрент piratbit.ga

Раздают: 1 [ 0 KB/s ]
Размер: 13.18 GB | Добавлен: 7 д. назад | Торрент скачан:4 раза
Скачать  

09-09-2019 06:14 Маска Скачать торрент  

Название: Маска
Оригинальное название: Mask
Год выпуска: 1985
Страна: США
Жанр: драма, биография
Продолжительность: 02:06:46
Перевод: профессиональный двухголосый, авторский

Режиссер: Питер Богданович
В ролях: Шер, Сэм Эллиотт, Эрик Столц, Эстелль Гетти, Ричард А. Дайсарт, Лора Дерн, Миколе Миркурио, Гарри Кэри-мл., Деннис Беркли, Лоуренс Моносон, Бен Пьяцца, Александра Пауэрз, Келли Джо Минтер, Джо Унгер, Тодд Аллен, Иван Дж. Радо, Анна Х. Фелон, Уэйн Грэйс, Ник Кассаветес, Ребекка Вуд, Пейдж Мэтьюз, Стэн Росс, Крид Брэттон, Чарльз Тейлор, Раммел Мор, Барри Тубб, Анна Теа, Джинни Димтер Бартон, Тони Сойер, Лу Фелдер, Кристофер Райделл, Джилл Уитлоу, Майкл Адамс, Джефф Дженсен, Джек Райт, Дороти Хэк, Эллисон Рот, Дэвид Скотт Милтон, Луис Уолдон, Эдди Пол

О фильме: Рокки (Рой ли) Деннис — шестнадцатилетний парень, страдающий редкой болезнью костей, превратившей его лицо в маску, чем-то похожую на львиную и вдвое больше обычного лица. Ко всему прочему, болезнь эта неизлечима. Но Рокки из той редкой породы людей, которые ставят на жизнь в любом положении. Рокки умён, наделён добрым, огромным сердцем; он не обозлён на мир, где при первом же взгляде, его ожидает насмешка или отвращение. Он прекрасно учится и легко добивается дружбы и уважения одноклассников. Живёт он с матерью, хиппующей рокершей Расти, красивой, отвязной, любящей, пьющей, злоупотребляющей наркотиками, а остальные члены его семьи — это братья-рокеры из банды мотоциклистов, в которой выделяется обаятельный усатый красавец Сэм Эллиотт, возможно, его отец... Фильм поставлен по реальной истории Роя ли Денниса (см. Википедию).



Качество: BDRip 1080p
Формат: MKV
Видео: MPEG-4 AVC, 12.7 Mбит/с, 1920x1040
Аудио 1: русский, AC3, 192 kbps, 2 ch, 48 kHz [закадровый двухголосый, HTB+]
Аудио 2: русский, AC3, 448 kbps, 6 ch, 48 kHz [авторский, Андрей Гаврилов]
Аудио 3: английский, DTS, 1509 kbps, 6 ch, 48 kHz [оригинал]
Субтитры 1: русские
Субтитры 2: английские
Главы/чаптеры
Есть места без перевода.
Общее
Уникальный идентификатор : 239909881355831878939304071221129666964 (0xB47CF662D861350EAA25FA2E3D666194)
Полное имя : D:\Video\Маска.1985.DirCut.BDRip 1080p by msltel.mkv
Формат : Matroska
Версия формата : Version 4
Размер файла : 13,2 Гбайт
Продолжительность : 2 ч. 6 м.
Общий поток : 14,9 Мбит/сек
Название фильма : Rip by msltel
Дата кодирования : UTC 2019-09-08 01:06:21
Программа кодирования : mkvmerge v8.2.0 ('World of Adventure') 64bit
Библиотека кодирования : libebml v1.3.1 + libmatroska v1.4.2

Видео
Идентификатор : 1
Формат : AVC
Формат/Информация : Advanced Video Codec
Профиль формата : High@L4.1
Настройки формата : CABAC / 4 Ref Frames
Параметр CABAC формата : Да
Параметр RefFrames формата : 4 кадра
Идентификатор кодека : V_MPEG4/ISO/AVC
Продолжительность : 2 ч. 6 м.
Битрейт : 12,7 Мбит/сек
Ширина : 1920 пикселей
Высота : 1040 пикселей
Соотношение сторон : 1,85:1
Режим частоты кадров : Постоянный
Частота кадров : 23,976 (24000/1001) кадра/сек
Цветовое пространство : YUV
Субдискретизация насыщенности : 4:2:0
Битовая глубина : 8 бит
Тип развёртки : Прогрессивная
Бит/(Пиксели*Кадры) : 0.266
Размер потока : 11,3 Гбайт (86%)
Библиотека кодирования : x264 core 157 r2935 545de2f
Настройки программы : cabac=1 / ref=4 / deblock=1:-2:-2 / analyse=0x3:0x113 / me=umh / subme=11 / psy=1 / psy_rd=1.00:0.15 / mixed_ref=1 / me_range=32 / chroma_me=1 / trellis=2 / 8x8dct=1 / cqm=0 / deadzone=21,11 / fast_pskip=0 / chroma_qp_offset=-3 / threads=6 / lookahead_threads=1 / sliced_threads=0 / nr=0 / decimate=1 / interlaced=0 / bluray_compat=0 / constrained_intra=0 / bframes=9 / b_pyramid=2 / b_adapt=2 / b_bias=0 / direct=1 / weightb=1 / open_gop=0 / weightp=2 / keyint=230 / keyint_min=23 / scenecut=40 / intra_refresh=0 / rc_lookahead=40 / rc=crf / mbtree=1 / crf=18.1 / qcomp=0.60 / qpmin=0 / qpmax=69 / qpstep=4 / vbv_maxrate=50000 / vbv_bufsize=62500 / crf_max=0.0 / nal_hrd=none / filler=0 / ip_ratio=1.40 / aq=1:1.00
Язык : English
Default : Да
Forced : Нет

Аудио #1
Идентификатор : 2
Формат : AC-3
Формат/Информация : Audio Coding 3
Коммерческое название : Dolby Digital
Идентификатор кодека : A_AC3
Продолжительность : 2 ч. 6 м.
Вид битрейта : Постоянный
Битрейт : 192 Кбит/сек
Каналы : 2 канала
ChannelLayout : L R
Частота : 48,0 КГц
Частота кадров : 31,250 кадров/сек (1536 SPF)
Битовая глубина : 16 бит
Метод сжатия : С потерями
Размер потока : 174 Мбайт (1%)
Заголовок : DVO HTB+
Язык : Russian
ServiceKind/String : Complete Main
Default : Да
Forced : Нет

Аудио #2
Идентификатор : 3
Формат : AC-3
Формат/Информация : Audio Coding 3
Коммерческое название : Dolby Digital
Идентификатор кодека : A_AC3
Продолжительность : 2 ч. 6 м.
Вид битрейта : Постоянный
Битрейт : 448 Кбит/сек
Каналы : 6 каналов
ChannelLayout : L R C LFE Ls Rs
Частота : 48,0 КГц
Частота кадров : 31,250 кадров/сек (1536 SPF)
Битовая глубина : 16 бит
Метод сжатия : С потерями
Размер потока : 406 Мбайт (3%)
Заголовок : Андрей Гаврилов
Язык : Russian
ServiceKind/String : Complete Main
Default : Нет
Forced : Нет

Аудио #3
Идентификатор : 4
Формат : DTS
Формат/Информация : Digital Theater Systems
Идентификатор кодека : A_DTS
Продолжительность : 2 ч. 6 м.
Вид битрейта : Постоянный
Битрейт : 1509 Кбит/сек
Каналы : 6 каналов
ChannelLayout : C L R Ls Rs LFE
Частота : 48,0 КГц
Частота кадров : 93,750 кадра/сек (512 SPF)
Битовая глубина : 16 бит
Метод сжатия : С потерями
Размер потока : 1,34 Гбайт (10%)
Заголовок : original
Язык : English
Default : Нет
Forced : Нет

Текст #1
Идентификатор : 5
Формат : UTF-8
Идентификатор кодека : S_TEXT/UTF8
Идентификатор кодека/Информация : UTF-8 Plain Text
Продолжительность : 2 ч. 1 м.
Битрейт : 87 бит/сек
ElementCount : 1374
Размер потока : 78,5 Кбайт (0%)
Заголовок : русские
Язык : Russian
Default : Нет
Forced : Нет

Текст #2
Идентификатор : 6
Формат : UTF-8
Идентификатор кодека : S_TEXT/UTF8
Идентификатор кодека/Информация : UTF-8 Plain Text
Продолжительность : 2 ч. 0 м.
Битрейт : 73 бит/сек
ElementCount : 1648
Размер потока : 64,6 Кбайт (0%)
Заголовок : английские
Язык : English
Default : Нет
Forced : Нет

Меню
00:00:00.000 : en:Chapter 1
00:07:53.223 : en:Chapter 2
00:18:14.510 : en:Chapter 3
00:26:54.446 : en:Chapter 4
00:41:45.628 : en:Chapter 5
00:52:55.714 : en:Chapter 6
01:05:26.631 : en:Chapter 7
01:19:13.415 : en:Chapter 8
01:32:30.253 : en:Chapter 9
01:43:34.208 : en:Chapter 10
01:52:02.966 : en:Chapter 11
02:02:21.084 : en:Chapter 12
piratbit.ga



Скачать Маска через торрент https://b.radikal.ru/b04/1909/1f/c099f01ca41c.jpg Скачать фильм Маска через торрент бесплантно в хорошем качестве О фильме: Рокки (Рой ли) Деннис — шестнадцатилетний парень, страдающий редкой болезнью костей, превратившей его лицо в маску, чем-то ... 7.5 10 2
Info! Золотая раздача, скачанное не засчитывается.
Торрент: Зарегистрирован [2019-09-09 06:14] · скачан: 4 раз
Статус: √ проверено
Размер: 13.18 GB
Как cкачать? Как скачать Маска через торрент | qTorrent

% Раздел Тема Автор DL S | L
Фильмы [HD 720p, 1080p] (Хороший звук DUB, MVO) [ 5.97 GB ] Маска / Mask [1985 биография BDRip 720p by msltel] DVO AVO | Режиссёрская версия msltel Скачать
2 | 0


>> Регистрируемся здесь <<






Отзывы и комментарии о схеме читаем и пишем здесь: ---> Отзывы и комментарии о схеме

Новые благодарочки в телеграм довольных пользователей:
скриншот   скриншот   скриншот   скриншот   скриншот
    Дорогой пользователь! Огромная просьба, поблагодарите релизера, оцените раздачу и оставьте свои комментарий, если Вы скачали Маска через торрент бесплатно! Внесите свою лепту в развитие PiratBit!
    Комментировать посты могут только пользователи прошедшие не сложную регистрацию
    Показать сообщения:    

    Маска через торрент
    Скачать бесплатно Маска
    Маска скачать торрент
    Маска смотреть онлайн
    Cкачать фильм Маска бесплатно
    Маска скачать торрент в хорошем качестве
    Маска смотреть онлайн бесплатно в хорошем качестве


    Вы не можете начинать темы
    Вы не можете отвечать на сообщения
    Вы не можете редактировать свои сообщения
    Вы не можете удалять свои сообщения
    Вы не можете голосовать в опросах
    Вы не можете прикреплять файлы к сообщениям
    Вы можете скачивать файлы