MEGA SALE -50% FORZA HORIZON 4 ULTIMATE+ВСЕ DLC+ОНЛАЙН всего за 599р. 299 руб. (супер цена). Внимание количество ограничено!!!

iTunes

1+1

iTunes

мы

iTunes

1

iTunes

Чернобыль

iTunes

Ральф против интернета

Лицензия

ПШазам

Лицензия

Игра престолов

Лицензия

30
pack

ВАЖНО

!!Акция!!

Alien_RageХит недели

RePack

Resident Evil 21

ИГРА 18+

pack

RePack

Metro:Exodus

!!Акция!!

Alien_Rage

RePack

fifa19

RePack

Assassins Creed: Odyssey

RePack

NEED FOR SPEED™ PAYBACK

3 сезон

9 сезон

Бесстыжие 9 сезон

Все сериалы

все сериалы на PB.wtf

RePack

FAR CRY 5
Ребята, катастрофически не хватает 7730р. для оплаты серверов за АВГУСТ (всвязи с блокировками трафик упал в 3 раза), 1-2р., выручайте.
  

Крепостная / Сезон: 2 / Серии: 1-14 из 24 (Феликс Герчиков, Максим Литвинов) [2019, Мелодрама, WEB-DLRip] piratbit.ga

Крепостная через торрент piratbit.ga

Размер: 8.62 GB | Добавлен: 3 д. назад | Торрент скачан:2 раза
Скачать  

05-09-2019 11:19 Крепостная Скачать торрент  

Крепостная
Год выпуска: 2019
Страна: Украина
Жанр: Мелодрама
Продолжительность: 00:50:44
Перевод: Не требуется
Субтитры: отсутствуют

Режиссер: Феликс Герчиков, Максим Литвинов



В ролях: Катерина Ковальчук, Алексей Яровенко, Станислав Боклан, Ольга Сумская, Марк Дробот, Олеся Жураковская, Михаил Гаврилов, Ксения Мишина, Виктор Бабак, Дарья Легейда

Описание: Юная сирота Катерина Вербицкая — очень красивая, умная и образованная девушка. Благодаря ее крестной матери Катю воспитали как барышню благородных кровей. Она знает иностранные языки, играет на фортепиано, рисует и прекрасно понимает, что все это никак не облегчит судьбу рожденной в неволе. Катерина принадлежит самым богатым помещикам в Нежине — Червинским. Девушка существует между двумя мирами — миром крепостных и дворян. И ни в одном из них для нее нет места.

Качество: WEB-DLRip
Формат: AVI

Видео: 720x400 (1.80:1), 25 fps, XviD build 73 ~1600 kbps avg, 0.223 bit/pixel
Аудио: 48.0 kHz, AC3 Dolby Digital, 2/0 (L,R) ch, ~ 192 kbps
скриншот  скриншот  скриншот  скриншот  скриншот  

General
Complete name : D:\Крепостная.S02.2019.WEB-DLRip.. Files-x\01. Крепостная.S02.2019.WEB-DLRip.. Files-x.avi
Format : AVI
Format/Info : Audio Video Interleave
File size : 642 MiB
Duration : 49 min 48 s
Overall bit rate : 1 802 kb/s
Writing application : VirtualDubMod 1.5.10.3 | www.virtualdub-fr.org || (build 2550/release)
Writing library : VirtualDubMod build 2550/release

Video
ID : 0
Format : MPEG-4 Visual
Format profile : Advanced Simple@L5
Format settings : BVOP1 / Custom Matrix
Format settings, BVOP : 1
Format settings, QPel : No
Format settings, GMC : No warppoints
Format settings, Matrix : Custom
Codec ID : XVID
Codec ID/Hint : XviD
Duration : 49 min 48 s
Bit rate : 1 600 kb/s
Width : 720 pixels
Height : 400 pixels
Display aspect ratio : 16:9
Frame rate : 25.000 FPS
Color space : YUV
Chroma subsampling : 4:2:0
Bit depth : 8 bits
Scan type : Progressive
Compression mode : Lossy
Bits/(Pixel*Frame) : 0.222
Stream size : 570 MiB (89%)
Writing library : XviD 73

Audio
ID : 1
Format : AC-3
Format/Info : Audio Coding 3
Codec ID : 2000
Duration : 49 min 48 s
Bit rate mode : Constant
Bit rate : 192 kb/s
Channel(s) : 2 channels
Channel positions : Front: L R
Sampling rate : 48.0 kHz
Frame rate : 31.250 FPS (1536 SPF)
Bit depth : 16 bits
Compression mode : Lossy
Stream size : 68.4 MiB (11%)
Alignment : Split accross interleaves
Interleave, duration : 40 ms (1.00 video frame)
Interleave, preload duratio : 500 ms
Service kind : Complete Main

Раздача ведётся путём добавления новых серий, при каждом добавлении создаётся новый торрент. Чтобы начать докачку новой серии, пользователям необходимо сделать следующее:

- Остановить скачивание.
- Удалить старый торрент у себя из клиента (старые серии удалять не надо).
- Скачать новый торрент и запустить его у себя в клиенте вместо старого, при этом указать клиенту путь в старую папку куда и должно происходить скачивание новых серий.

Ваш клиент при этом должен произвести хеширование (проверку) старой папки (если не производит сам - помогите ему сделать это), и будет докачивать только те серии которых у вас ещё нет. Старые серии при этом не удаляются, а продолжают раздаваться!
Если вы уже удалили старые серии, то предотвратить повторную закачку старых серий можно, отжав галочку в соответствующих местах при запуске нового торрента. По возможности, желательно не удалять старые серии как можно дольше, чтобы релизер не столько продолжал раздавать старые серии, а смог сконцентрироваться на новых.
piratbit.ga



Скачать Крепостная через торрент https://a.radikal.ru/a17/1909/a2/05f417cda012.jpg Скачать фильм Крепостная через торрент бесплантно в хорошем качестве Описание: Юная сирота Катерина Вербицкая — очень красивая, умная и образованная девушка. Благодаря ее крестной матери Катю воспитали как ... 10 10 3
Торрент: Зарегистрирован [2019-09-12 09:18] · скачан: 2 раз
Статус: √ проверено
Размер: 8.62 GB
Как cкачать? Как скачать Крепостная через торрент | qTorrent


>> Регистрируемся здесь <<






Отзывы и комментарии о схеме читаем и пишем здесь: ---> Отзывы и комментарии о схеме

Новые благодарочки в телеграм довольных пользователей:
скриншот   скриншот   скриншот   скриншот   скриншот
    Дорогой пользователь! Огромная просьба, поблагодарите релизера, оцените раздачу и оставьте свои комментарий, если Вы скачали Крепостная через торрент бесплатно! Внесите свою лепту в развитие PiratBit!
    Комментировать посты могут только пользователи прошедшие не сложную регистрацию
    Показать сообщения:    

    Крепостная через торрент
    Скачать бесплатно Крепостная
    Крепостная скачать торрент
    Крепостная смотреть онлайн
    Cкачать фильм Крепостная бесплатно
    Крепостная скачать торрент в хорошем качестве
    Крепостная смотреть онлайн бесплатно в хорошем качестве


    Вы не можете начинать темы
    Вы не можете отвечать на сообщения
    Вы не можете редактировать свои сообщения
    Вы не можете удалять свои сообщения
    Вы не можете голосовать в опросах
    Вы не можете прикреплять файлы к сообщениям
    Вы можете скачивать файлы