MEGA SALE -50% FORZA HORIZON 4 ULTIMATE+ВСЕ DLC+ОНЛАЙН всего за 599р. 299 руб. (супер цена). Внимание количество ограничено!!!

iTunes

1+1

iTunes

мы

iTunes

1

iTunes

Чернобыль

iTunes

Ральф против интернета

Лицензия

ПШазам

Лицензия

Игра престолов

Лицензия

30
pack

ВАЖНО

!!Акция!!

Alien_RageХит недели

RePack

Resident Evil 21

ИГРА 18+

pack

RePack

Metro:Exodus

!!Акция!!

Alien_Rage

RePack

fifa19

RePack

Assassins Creed: Odyssey

RePack

NEED FOR SPEED™ PAYBACK

3 сезон

9 сезон

Бесстыжие 9 сезон

Все сериалы

все сериалы на PB.wtf

RePack

FAR CRY 5
Ребята, катастрофически не хватает 7730р. для оплаты серверов за АВГУСТ (всвязи с блокировками трафик упал в 3 раза), 1-2р., выручайте.
  

Террор / The Terror / Сезон: 2 / Серия: 1-5 из 10 (Тим Милантс, Эдвард Бергер, Серджо Мимика-Геззан) [2019, Ужасы, триллер, драма, история, фэнтези, WEB-DL 1080p] MVO [LostFilm] piratbit.ga

Террор через торрент piratbit.ga

Раздают: 1 [ 109 KB/s ] Качают: 1 [ 0 KB/s ]
Размер: 15.26 GB | Добавлен: 2 д. 22 ч. назад | Торрент скачан:2 раза
Скачать  

16-08-2019 09:49 Террор Скачать торрент  

Террор | The Terror Год выпуска: 2019
Страна: США
Жанр: Ужасы, триллер, драма, история, фэнтези
Продолжительность: ~00:45:00
Перевод: Профессиональный (многоголосый закадровый) | LostFilm
Субтитры: Русские (Forced |«LostFilm»|, Full |«FOCS»|, английские (Full)

Режиссёр: Тим Милантс, Эдвард Бергер, Серджо Мимика-Геззан

В ролях: Дерек Мио, Кики Сукэдзанэ, Кристина Родло, Синго Усами, Наоко Мори, Мики Исикава, Джордж Такей и др.

Описание: В 1942 году на калифорнийском острове Терминал в местной японской общине происходит самоубийство женщины, после чего некоторые начинают считать, что тут объявилась бакэмоно — древняя японская нечисть, способная менять форму. Вскоре президент США санкционировал интернирование, в результате около 120 тысяч живших в Америке японцев были насильственно выселены с Тихоокеанского побережья и помещены в специальные лагеря. Вместе с интернированными туда пробралось и зло.



Качество: WEB-DL 1080p
Формат: MKV

Видео: AVC, 1920x1080 (16:9), 23.976 fps, ~ 6900 Kbps
Аудио №1: AC3, 48,0 kHz, 6 ch, 640 kbps | LostFilm
Аудио №2: AC3, 48,0 kHz, 6 ch, 640 kbps | Original


Реклама:Отсутствует| Чистый видеоряд (без заставки и логотипа)!

Источник: The.Terror.S02.1080p.AMZN.WEB-DL.DDP5.1.x264-AJP69
01. A Sparrow in a Swallow's Nest / Воробушек в ласточкином гнезде
Аудио №1 получено наложением выделенных голосов от «LostFilm» на центр оригинального EAC3 (отдельная благодарность за 5.1 - itunestv).
Complete name : D:\Shows\The_Terror_(s02)_LostFilm_1080p\The.Terror.2019.S02E01.Infamy.A.Sparrow.in.a.Swallows.Nest.1080p.AMZN.WEB-DL.DD5.1.x264-AJP69_EniaHD.mkv
Format : Matroska
Format version : Version 2
File size : 3.01 GiB
Duration : 51 min 37 s
Overall bit rate : 8 353 kb/s
Encoded date : UTC 2019-08-16 09:25:30
Writing application : mkvmerge v4.9.1 ('Ich will') сборка от Jul 11 2011 23:53:15
Writing library : libebml v1.2.1 + libmatroska v1.1.1

Video
ID : 1
Format : AVC
Format/Info : Advanced Video Codec
Format profile : High@L4
Format settings : CABAC / 4 Ref Frames
Format settings, CABAC : Yes
Format settings, Reference : 4 frames
Codec ID : V_MPEG4/ISO/AVC
Duration : 51 min 37 s
Bit rate mode : Constant
Bit rate : 6 907 kb/s
Nominal bit rate : 10 000 kb/s
Width : 1 920 pixels
Height : 1 080 pixels
Display aspect ratio : 16:9
Frame rate mode : Constant
Frame rate : 23.976 (24000/1001) FPS
Color space : YUV
Chroma subsampling : 4:2:0
Bit depth : 8 bits
Scan type : Progressive
Bits/(Pixel*Frame) : 0.139
Stream size : 2.49 GiB (83%)
Title : Release by EniaHD
Default : Yes
Forced : No
Color range : Limited
Color primaries : BT.709
Transfer characteristics : BT.709
Matrix coefficients : BT.709

Audio #1
ID : 2
Format : AC-3
Format/Info : Audio Coding 3
Commercial name : Dolby Digital
Codec ID : A_AC3
Duration : 51 min 37 s
Bit rate mode : Constant
Bit rate : 640 kb/s
Channel(s) : 6 channels
Channel layout : L R C LFE Ls Rs
Sampling rate : 48.0 kHz
Frame rate : 31.250 FPS (1536 SPF)
Bit depth : 16 bits
Compression mode : Lossy
Stream size : 236 MiB (8%)
Title : LostFilm
Language : Russian
Service kind : Complete Main
Default : Yes
Forced : No

Audio #2
ID : 3
Format : AC-3
Format/Info : Audio Coding 3
Commercial name : Dolby Digital
Codec ID : A_AC3
Duration : 51 min 37 s
Bit rate mode : Constant
Bit rate : 640 kb/s
Channel(s) : 6 channels
Channel layout : L R C LFE Ls Rs
Sampling rate : 48.0 kHz
Frame rate : 31.250 FPS (1536 SPF)
Bit depth : 16 bits
Compression mode : Lossy
Stream size : 236 MiB (8%)
Language : English
Service kind : Complete Main
Default : No
Forced : No

Text #1
ID : 4
Format : UTF-8
Codec ID : S_TEXT/UTF8
Codec ID/Info : UTF-8 Plain Text
Title : Forced
Language : Russian
Default : Yes
Forced : No

Text #2
ID : 5
Format : UTF-8
Codec ID : S_TEXT/UTF8
Codec ID/Info : UTF-8 Plain Text
Title : Full
Language : English
Default : No
Forced : No
Раздача ведётся путём добавления новых серий; при каждом добавлении создаётся новый торрент.
Чтобы начать докачку новой серии, пользователям необходимо сделать следующее:
1. остановить скачивание,
2. удалить старый торрент у себя из клиента (старые серии удалять не надо),
3. скачать новый торрент и запустить его у себя в клиенте вместо старого, при этом указать клиенту путь в старую папку, куда и должно происходить скачивание новых серий.

Ваш клиент при этом должен произвести хеширование (проверку) старой папки (если не производит сам - помогите ему сделать это), и будет докачивать только те серии которых у вас ещё нет. Старые серии при этом не удаляются, а продолжают раздаваться!

Eсли вы уже удалили старые серии, то предотвратить повторную закачку старых серий можно, отжав галочку в соответствующих местах при запуске нового торрента. По возможности, желательно не удалять старые серии как можно дольше, чтобы релизёр не столько продолжал раздавать старые серии, а смог сконцентрироваться на новых.

Совет для тех, кто не хочет ждать перехеширования:
Создайте ещё одну папку рядом с папкой сериала (рядом, а не в ней!!!). Каждую новую серию после удачной загрузки копируйте в новую папку так чтобы ваша основная папка всегда была пуста. Когда ваш новый торрент предложит вам закачать все файлы, выберете только последнюю. Для сидирования же укажите адрес новой папки.

Как закачать отдельный файл из торрента или докачать ранее пропущенные файлы торрента!
piratbit.ga



Скачать Террор через торрент https://d.radikal.ru/d22/1908/38/9e17f89e3ca7.png Скачать фильм Террор через торрент бесплантно в хорошем качестве Описание: В 1942 году на калифорнийском острове Терминал в местной японской общине происходит самоубийство женщины, после чего некоторые ... 9.5 10 4
Торрент: Зарегистрирован [2019-09-13 09:53] · скачан: 2 раз
Статус: √ проверено
Размер: 15.26 GB
Как cкачать? Как скачать Террор через торрент | qTorrent

% Раздел Тема Автор DL S | L
Зарубежные сериалы [ 7.58 GB ] Террор / The Terror / Сезон: 2 / Серии: 1-5 из 10 [2019 WEB-DL 720p] [MVO] killermax2013 Скачать
1 | 0
Зарубежные сериалы [ 6.78 GB ] Террор / The Terror / Сезон: 2 / Серии: 1-5 из 10 [2019 WEB-DL 720p] MVO [AlexFilm] bober100 Скачать
1 | 0
Зарубежные сериалы [ 3.12 GB ] Террор / The Terror / Сезон: 2 / Серии: 1-5 из 10 [2019 история WEB-DLRip] MVO [LostFilm] bober100 Скачать
3 | 1
Зарубежные сериалы [ 14.56 GB ] Террор / The Terror / Сезон: 2 / Серии: 1-5 из 10 [2019 WEB-DL 1080p] MVO [AMC] bober100 Скачать
1 | 1
Зарубежные сериалы [ 14.69 GB ] Террор / The Terror / Сезон: 2 / Серии: 1-5 из 10 [2019 WEB-DL 1080p] MVO [TVShows] bober100 Скачать
1 | 1


>> Регистрируемся здесь <<






Отзывы и комментарии о схеме читаем и пишем здесь: ---> Отзывы и комментарии о схеме

Новые благодарочки в телеграм довольных пользователей:
скриншот   скриншот   скриншот   скриншот   скриншот
    Дорогой пользователь! Огромная просьба, поблагодарите релизера, оцените раздачу и оставьте свои комментарий, если Вы скачали Террор через торрент бесплатно! Внесите свою лепту в развитие PiratBit!
    Комментировать посты могут только пользователи прошедшие не сложную регистрацию
    Показать сообщения:    

    Террор через торрент
    Скачать бесплатно Террор
    Террор скачать торрент
    Террор смотреть онлайн
    Cкачать фильм Террор бесплатно
    Террор скачать торрент в хорошем качестве
    Террор смотреть онлайн бесплатно в хорошем качестве


    Вы не можете начинать темы
    Вы не можете отвечать на сообщения
    Вы не можете редактировать свои сообщения
    Вы не можете удалять свои сообщения
    Вы не можете голосовать в опросах
    Вы не можете прикреплять файлы к сообщениям
    Вы можете скачивать файлы