Мега распродажа FORZA HORIZON 4 ULTIMATE+ВСЕ DLC+ОНЛАЙН всего за 499р. 349 руб. (супер цена). Внимание количество ограничено!!!

iTunes

1+1

iTunes

мы

iTunes

1

iTunes

Чернобыль

1 сезон

Ральф против интернета

Лицензия

ПШазам

Лицензия

Игра престолов

Лицензия

30
pack

ВАЖНО

!!Акция!!

Alien_RageХит недели

RePack

Resident Evil 21

ИГРА 18+

pack

RePack

Metro:Exodus

!!Акция!!

Alien_Rage

RePack

fifa19

RePack

Assassins Creed: Odyssey

RePack

NEED FOR SPEED™ PAYBACK

3 сезон

9 сезон

Бесстыжие 9 сезон

Все сериалы

все сериалы на PB.wtf

RePack

FAR CRY 5
Ребята, катастрофически не хватает 7730р. для оплаты серверов за ИЮЛЬ (всвязи с блокировками трафик упал в 3 раза), 1-2р., выручайте.
  

Путь 29 / Track 29 (Николас Роуг) [1988, Драма, детектив, BDRip 720p, Профессиональный двухголосый] от ExKinoRay piratbit.ga

Путь 29 через торрент piratbit.ga

Раздают: 4 [ 630 KB/s ]
Размер: 4.36 GB | Добавлен: 8 д. назад | Торрент скачан:12 раз
Скачать  

10-08-2019 11:22 Путь 29 Скачать торрент  

Путь 29 / Track 29Год выпуска: 1988
Страна: Великобритания, США
Жанр: Драма, детектив
Продолжительность: 01:30:14
Перевод: Профессиональный двухголосый
Субтитры: Английские

Режиссер: Николас Роуг

Бюджет: $5 000 000
Премьера в мире: 15 мая 1988

rating

В ролях: Тереза Расселл, Гэри Олдман, Кристофер Ллойд, Коллин Кэмп, Сандра Бернхард, Сеймур Кэссел, Леон Риппи, Вэнс Колвиг мл., Кэтрин Томлинсон, Джерри Рашинг

Описание: Главная героиня фильма – женщина по имени Линда. Она замужем за врачом, который не только слишком фанатично увлекается игрушечными железными дорогами, но и имеет некоторые психические отклонения. Постоянные выходки мужа сводят с ума Линду и поэтому, когда она получает возможность побыть наедине с собой, то фантазирует о возвращении своего потерянного сына, которого она родила в 15-летнем возрасте от изнасиловавшего ее таксиста. В мечтах Линды сын должен был избавить ее от неуравновешенного мужа...

Качество: BDRip 720p
Формат: MKV
Видео кодек: H.264
Аудио кодек: AC3
Видео: MPEG-4 AVC, 6000 Кбит/с, 1280x694, 23,976 кадра/сек
Аудио#1: Русский (AC3, 6 ch, 448 Кбит/с, 48 КГц)
Аудио#2: Английский (AC3, 2 ch, 448 Кбит/с, 48 КГц)
Релиз от:
Общее
Уникальный идентификатор : 252885469718226085278723075586092074797 (0xBE3FF848F25262548676BB48E27E872D)
Полное имя : F:\ExKinoRayRips\Track29.1988.BDRip720p.ExKinoRay.mkv
Формат : Matroska
Версия формата : Version 2
Размер файла : 4,36 Гбайт
Продолжительность : 1 ч. 30 м.
Общий поток : 6911 Кбит/сек
Дата кодирования : UTC 2019-08-10 04:48:10
Программа кодирования : mkvmerge v7.8.0 ('River Man') 32bit built on Apr 3 2015 12:11:22
Библиотека кодирования : libebml v1.3.1 + libmatroska v1.4.2

Видео
Идентификатор : 1
Формат : AVC
Формат/Информация : Advanced Video Codec
Профиль формата : High@L4.1
Настройки формата : CABAC / 9 Ref Frames
Параметр CABAC формата : Да
Параметр RefFrames формата : 9 кадров
Идентификатор кодека : V_MPEG4/ISO/AVC
Продолжительность : 1 ч. 30 м.
Битрейт : 6000 Кбит/сек
Ширина : 1280 пикселей
Высота : 694 пикселя
Соотношение сторон : 1,85:1
Режим частоты кадров : Постоянный
Частота кадров : 23,976 (24000/1001) кадра/сек
Цветовое пространство : YUV
Субдискретизация насыщенности : 4:2:0
Битовая глубина : 8 бит
Тип развёртки : Прогрессивная
Бит/(Пиксели*Кадры) : 0.282
Размер потока : 3,70 Гбайт (85%)
Библиотека кодирования : x264 core 152 r2851 ba24899
Настройки программы : cabac=1 / ref=9 / deblock=1:-3:-2 / analyse=0x3:0x113 / me=umh / subme=10 / psy=1 / psy_rd=1.00:0.10 / mixed_ref=1 / me_range=32 / chroma_me=1 / trellis=2 / 8x8dct=1 / cqm=0 / deadzone=21,11 / fast_pskip=0 / chroma_qp_offset=-3 / threads=6 / lookahead_threads=1 / sliced_threads=0 / nr=0 / decimate=0 / interlaced=0 / bluray_compat=0 / constrained_intra=0 / bframes=12 / b_pyramid=2 / b_adapt=2 / b_bias=0 / direct=3 / weightb=1 / open_gop=0 / weightp=2 / keyint=240 / keyint_min=23 / scenecut=40 / intra_refresh=0 / rc=2pass / mbtree=0 / bitrate=6000 / ratetol=1.0 / qcomp=0.60 / qpmin=0 / qpmax=69 / qpstep=4 / cplxblur=20.0 / qblur=0.5 / ip_ratio=1.40 / pb_ratio=1.30 / aq=3:1.00
Язык : English
Default : Да
Forced : Нет
Цветовой диапазон : Limited
Основные цвета : BT.709
Характеристики трансфера : BT.709
Коэффициенты матрицы : BT.709

Аудио #1
Идентификатор : 2
Формат : AC-3
Формат/Информация : Audio Coding 3
Коммерческое название : Dolby Digital
Идентификатор кодека : A_AC3
Продолжительность : 1 ч. 30 м.
Вид битрейта : Постоянный
Битрейт : 448 Кбит/сек
Каналы : 6 каналов
Channel layout : L R C LFE Ls Rs
Частота : 48,0 КГц
Частота кадров : 31,250 кадров/сек (1536 SPF)
Битовая глубина : 16 бит
Метод сжатия : С потерями
Размер потока : 289 Мбайт (6%)
Язык : Russian
ServiceKind/String : Complete Main
Default : Да
Forced : Нет

Аудио #2
Идентификатор : 3
Формат : AC-3
Формат/Информация : Audio Coding 3
Коммерческое название : Dolby Digital
Идентификатор кодека : A_AC3
Продолжительность : 1 ч. 30 м.
Вид битрейта : Постоянный
Битрейт : 448 Кбит/сек
Каналы : 2 канала
Channel layout : L R
Частота : 48,0 КГц
Частота кадров : 31,250 кадров/сек (1536 SPF)
Битовая глубина : 16 бит
Метод сжатия : С потерями
Размер потока : 289 Мбайт (6%)
Язык : English
ServiceKind/String : Complete Main
Default : Нет
Forced : Нет

Текст
Идентификатор : 4
Формат : PGS
Режим смешивания : zlib
Идентификатор кодека : S_HDMV/PGS
Идентификатор кодека/Информация : Picture based subtitle format used on BDs/HD-DVDs
Язык : English
Default : Нет
Forced : Нет

Меню
00:00:00.000 : en:Chapter 01
00:07:30.491 : en:Chapter 02
00:19:22.536 : en:Chapter 03
00:27:04.164 : en:Chapter 04
00:37:48.599 : en:Chapter 05
00:46:51.558 : en:Chapter 06
00:54:09.996 : en:Chapter 07
01:02:29.829 : en:Chapter 08
01:12:11.327 : en:Chapter 09
01:23:12.988 : en:Chapter 10

piratbit.ga



Скачать Путь 29 через торрент http://c.radikal.ru/c08/1908/a4/faff205d26a3.jpg Скачать фильм Путь 29 через торрент бесплантно в хорошем качестве Описание: Главная героиня фильма – женщина по имени Линда. Она замужем за врачом, который не только слишком фанатично увлекается ... 10 10 1
Info! Золотая раздача, скачанное не засчитывается.
Торрент: Зарегистрирован [2019-08-10 11:22] · скачан: 12 раз
Статус: √ проверено
Размер: 4.36 GB
Как cкачать? Как скачать Путь 29 через торрент | qTorrent


>> Регистрируемся здесь <<






Отзывы и комментарии о схеме читаем и пишем здесь: ---> Отзывы и комментарии о схеме

Новые благодарочки в телеграм довольных пользователей:
скриншот   скриншот   скриншот   скриншот   скриншот

10-08-2019 11:30 Путь 29 Скачать торрент  

Топик был перенесен из форума Оформление раздач (Кино, Видео и ТВ) в форум Фильмы [HD 720p, 1080p] (Звук Cam, VO, DVO)


bober100piratbit.ga



    Дорогой пользователь! Огромная просьба, поблагодарите релизера, оцените раздачу и оставьте свои комментарий, если Вы скачали Путь 29 через торрент бесплатно! Внесите свою лепту в развитие PiratBit!
    Комментировать посты могут только пользователи прошедшие не сложную регистрацию
    Показать сообщения:    

    Путь 29 через торрент
    Скачать бесплатно Путь 29
    Путь 29 скачать торрент
    Путь 29 смотреть онлайн
    Cкачать фильм Путь 29 бесплатно
    Путь 29 скачать торрент в хорошем качестве
    Путь 29 смотреть онлайн бесплатно в хорошем качестве


    Вы не можете начинать темы
    Вы не можете отвечать на сообщения
    Вы не можете редактировать свои сообщения
    Вы не можете удалять свои сообщения
    Вы не можете голосовать в опросах
    Вы не можете прикреплять файлы к сообщениям
    Вы можете скачивать файлы