новый адрес
Ссылка на приватное зеркало всего за 1$. Внимание количество ограничено!!!

iTunes

1+1

iTunes

мы

WEB-DL

1

iTunes

Чернобыль

iTunes

Ральф против интернета

Лицензия

ПШазам

Лицензия

Оно 2

Лицензия

30
pack

Вам бонус

ВАЖНО

!!Акция!!

Alien_RageХит недели

RePack

Resident Evil 21

ИГРА 18+

pack

RePack

jed

!!Акция!!

Alien_Rage

RePack

fifa19

RePack

Assassins Creed: Odyssey

RePack

NEED FOR SPEED™ PAYBACK

3 сезон

9 сезон

Бесстыжие 9 сезон

Все сериалы

все сериалы на PB.wtf

RePack

FAR CRY 5
Ребята, катастрофически не хватает 1900р. для оплаты серверов за Октябрь (всвязи с блокировками трафик упал в 3 раза), 1-2р., выручайте.
  

Это не навсегда (Евгения Яцкина, Алена Рубинштейн) [2019, драма, WEB-DL 1080p] [iTunes] piratbit.ga

Это не навсегда через торрент piratbit.ga

Размер: 3.19 GB | Добавлен: 3 мес. 7 д. назад | Торрент скачан:46 раз
Скачать  

24-07-2019 07:01 Это не навсегда Скачать торрент  

Это не навсегда
Год выпуска: 2019
Страна: Россия
Жанр: драма
Продолжительность: 01:32:56
Перевод: Не требуется | iTunes
Субтитры: отсутствуют

Режиссер: Евгения Яцкина, Алена Рубинштейн

rating

В ролях: Агриппина Стеклова, Ольга Лапшина, Яна Есипович, Александр Мохов, Марта Дроздова, Михаил Сазанов, Макар Пусторамов, Саша Агашков, Даниил Коновалов, Тимур Шошин

Описание: В центре сюжета - истории четырёх воспитанников детского дома. Петя, Ваня, Настенька и Миша мечтают об одном: найти свою семью. Несмотря на то, что их судьбы тесно переплетены между собой, у каждого из них свой путь. Герои проживают вместе нелегкие будни, однако надеются и верят, что это не навсегда.

Качество: WEB-DL 1080p
Формат: MKV

Видео: MPEG-4 AVC, 1920x804, 4524 Kbps, 25.000 fps
Аудио: Russian: AC3, 48.0 KHz, 6 ch, 384 kbps - iTunes
скриншот  скриншот  скриншот  скриншот  скриншот  

General
Unique ID : 200156626247057610389412572527787917893 (0x9694C395E03487EE9CCC521638164245)
Complete name : Это.не.навсегда.2019.WEB-DL.1080p.mkv
Format : Matroska
Format version : Version 4 / Version 2
File size : 3.19 GiB
Duration : 1 h 32 min
Overall bit rate : 4 910 kb/s
Encoded date : UTC 2019-08-29 18:57:23
Writing application : mkvmerge v7.8.0 ('River Man') 32bit built on Apr 3 2015 12:11:22
Writing library : libebml v1.3.1 + libmatroska v1.4.2

Video
ID : 1
Format : AVC
Format/Info : Advanced Video Codec
Format profile : High@L4
Format settings, CABAC : Yes
Format settings, RefFrames : 5 frames
Codec ID : V_MPEG4/ISO/AVC
Duration : 1 h 32 min
Bit rate : 4 524 kb/s
Width : 1 920 pixels
Height : 804 pixels
Display aspect ratio : 2.40:1
Frame rate mode : Constant
Frame rate : 25.000 FPS
Color space : YUV
Chroma subsampling : 4:2:0
Bit depth : 8 bits
Scan type : Progressive
Bits/(Pixel*Frame) : 0.117
Stream size : 2.94 GiB (92%)
Language : Russian
Default : Yes
Forced : No
Color range : Limited
Color primaries : BT.709
Transfer characteristics : BT.709
Matrix coefficients : BT.709

Audio
ID : 2
Format : AC-3
Format/Info : Audio Coding 3
Format settings, Endianness : Big
Codec ID : A_AC3
Duration : 1 h 32 min
Bit rate mode : Constant
Bit rate : 384 kb/s
Channel(s) : 6 channels
Channel positions : Front: L C R, Side: L R, LFE
Sampling rate : 48.0 kHz
Frame rate : 31.250 FPS (1536 SPF)
Bit depth : 16 bits
Compression mode : Lossy
Stream size : 255 MiB (8%)
Title : iTunes
Language : Russian
Service kind : Complete Main
Default : Yes
Forced : No

Menu
00:00:00.000 : en:Глава 1
00:08:26.800 : en:Глава 2
00:16:46.480 : en:Глава 3
00:25:23.880 : en:Глава 4
00:33:39.040 : en:Глава 5
00:41:58.640 : en:Глава 6
00:50:50.640 : en:Глава 7
01:00:01.680 : en:Глава 8
01:08:06.640 : en:Глава 9
01:15:49.520 : en:Глава 10
01:24:28.880 : en:Глава 11

piratbit.ga



Скачать Это не навсегда через торрент https://b.radikal.ru/b17/1907/bf/6ad9736dfda1.jpg Скачать фильм Это не навсегда через торрент бесплантно в хорошем качестве Описание: В центре сюжета - истории четырёх воспитанников детского дома. Петя, Ваня, Настенька и Миша мечтают об одном: найти свою семью. ... 10 10 8
Торрент: Зарегистрирован [2019-08-29 21:20] · скачан: 46 раз
Статус: √ проверено
Размер: 3.19 GB
Как cкачать? Как скачать Это не навсегда через торрент | qTorrent

% Раздел Тема Автор DL S | L
Наши новые фильмы 2018-2019 [ 1.46 GB ] Это не навсегда [2019 WEB-DLRip] bober100 Скачать
4 | 0

28-11-2019 20:33  

Отключить всю рекламу на сайте

    Дорогой пользователь! Огромная просьба, поблагодарите релизера, оцените раздачу и оставьте свои комментарий, если Вы скачали Это не навсегда через торрент бесплатно! Внесите свою лепту в развитие PiratBit!
    Комментировать посты могут только пользователи прошедшие не сложную регистрацию
    Показать сообщения:    

    Это не навсегда через торрент
    Скачать бесплатно Это не навсегда
    Это не навсегда скачать торрент
    Это не навсегда смотреть онлайн
    Cкачать фильм Это не навсегда бесплатно
    Это не навсегда скачать торрент в хорошем качестве
    Это не навсегда смотреть онлайн бесплатно в хорошем качестве


    Вы не можете начинать темы
    Вы не можете отвечать на сообщения
    Вы не можете редактировать свои сообщения
    Вы не можете удалять свои сообщения
    Вы не можете голосовать в опросах
    Вы не можете прикреплять файлы к сообщениям
    Вы можете скачивать файлы