MEGA SALE -50% FORZA HORIZON 4 ULTIMATE+ВСЕ DLC+ОНЛАЙН всего за 599р. 299 руб. (супер цена). Внимание количество ограничено!!!

iTunes

1+1

iTunes

мы

iTunes

1

iTunes

Чернобыль

iTunes

Ральф против интернета

Лицензия

ПШазам

Лицензия

Игра престолов

Лицензия

30
pack

ВАЖНО

!!Акция!!

Alien_RageХит недели

RePack

Resident Evil 21

ИГРА 18+

pack

RePack

Metro:Exodus

!!Акция!!

Alien_Rage

RePack

fifa19

RePack

Assassins Creed: Odyssey

RePack

NEED FOR SPEED™ PAYBACK

3 сезон

9 сезон

Бесстыжие 9 сезон

Все сериалы

все сериалы на PB.wtf

RePack

FAR CRY 5
Ребята, катастрофически не хватает 7730р. для оплаты серверов за АВГУСТ (всвязи с блокировками трафик упал в 3 раза), 1-2р., выручайте.
  

План побега 3 / Escape Plan: The Extractors (Джон Херцфелд) [2019, боевик, триллер, BDRip 1080p] [Расширенная версия] DUB [iTunes] piratbit.ga

План побега 3 через торрент piratbit.ga

Раздают: 15 [ 304 KB/s ]
Размер: 9.22 GB | Добавлен: 6 д. назад | Торрент скачан:166 раз
Скачать  

15-07-2019 09:17 План побега 3 Скачать торрент  

План побега 3 / Escape Plan: The ExtractorsРасширенная версия
Год выпуска: 2019
Страна: США
Жанр: боевик, триллер
Продолжительность: 01:37:20
Перевод: Дублированный | iTunes
Субтитры: отсутствуют

Режиссер: Джон Херцфелд

rating

В ролях: Сильвестр Сталлоне, Дэйв Батиста, Фифти Сент, Джейми Кинг, Макс Чжан, Девон Сава, Гарри Шам мл., Расселл Вонг, Дэниэл Бернхард, Лидия Халл

Описание: Непревзойденный взломщик тюрем Рэй Бреслин опять ввязался в смертельно опасную авантюру: вместе со своей командой он берётся разыскать похищенную дочь своего друга - бизнесмена из Гонконга. Нити расследования приводят к одной из самых секретных тюрем Америки, которая называется «Пункт Дьявола».

Качество: BDRip 1080p
Формат: MKV

Видео: MPEG-4 AVC, 1920x800, 12.5 Mbit/s, 23.976 fps
Аудио#1: 48 kHz, AC3, 5.1, 384 Kbps | iTunes | RUS |
Аудио#2: 48 kHz, AC3, 5.1, 640 Kbps | Оригинал | ENG |
скриншот  скриншот  скриншот  скриншот  скриншот  

General
Unique ID : 318963016697475655958902102192323014833 (0xEFF60AE1580B81E7F06F889A7B1BB0B1)
Complete name : D:Video111Escape.Plan.The.Extractors.2019.Extended.Cut.BDRip.1080p.seleZen.mkv
Format : Matroska
Format version : Version 4
File size : 9.22 GiB
Duration : 1 h 37 min
Overall bit rate : 13.6 Mb/s
Movie name : Escape Plan The Extractors 2019 Extended Cut from селезень
Encoded date : UTC 2019-09-10 01:26:52
Writing application : mkvmerge v22.0.0 ('At The End Of The World') 64-bit
Writing library : libebml v1.3.5 + libmatroska v1.4.8

Video
ID : 1
Format : AVC
Format/Info : Advanced Video Codec
Format profile : High@L4.1
Format settings : CABAC / 5 Ref Frames
Format settings, CABAC : Yes
Format settings, Reference : 5 frames
Codec ID : V_MPEG4/ISO/AVC
Duration : 1 h 37 min
Bit rate : 12.5 Mb/s
Width : 1 920 pixels
Height : 800 pixels
Display aspect ratio : 2.40:1
Frame rate mode : Constant
Frame rate : 23.976 (24000/1001) FPS
Color space : YUV
Chroma subsampling : 4:2:0
Bit depth : 8 bits
Scan type : Progressive
Bits/(Pixel*Frame) : 0.341
Stream size : 8.52 GiB (92%)
Title : Encoded by seleZen
Writing library : x264 core 148 r2705kMod 3f5ed56
Encoding settings : cabac=1 / ref=5 / deblock=1:-2:-2 / analyse=0x3:0x113 / me=umh / subme=11 / psy=1 / fade_compensate=0.00 / psy_rd=1.00:0.00 / mixed_ref=1 / me_range=32 / chroma_me=1 / trellis=2 / 8x8dct=1 / cqm=0 / deadzone=21,11 / fast_pskip=0 / chroma_qp_offset=-2 / threads=24 / lookahead_threads=6 / sliced_threads=0 / nr=0 / decimate=0 / interlaced=0 / bluray_compat=0 / constrained_intra=0 / fgo=0 / bframes=10 / b_pyramid=2 / b_adapt=2 / b_bias=0 / direct=3 / weightb=1 / open_gop=0 / weightp=2 / keyint=240 / keyint_min=23 / scenecut=40 / intra_refresh=0 / rc_lookahead=50 / rc=2pass / mbtree=0 / bitrate=12549 / ratetol=1.0 / qcomp=0.60 / qpmin=0 / qpmax=51 / qpstep=4 / cplxblur=20.0 / qblur=0.5 / vbv_maxrate=50000 / vbv_bufsize=62500 / nal_hrd=none / filler=0 / ip_ratio=1.40 / pb_ratio=1.30 / aq=3:0.80
Language : French
Default : Yes
Forced : No

Audio #1
ID : 2
Format : AC-3
Format/Info : Audio Coding 3
Commercial name : Dolby Digital
Codec ID : A_AC3
Duration : 1 h 37 min
Bit rate mode : Constant
Bit rate : 384 kb/s
Channel(s) : 6 channels
Channel layout : L R C LFE Ls Rs
Sampling rate : 48.0 kHz
Frame rate : 31.250 FPS (1536 SPF)
Bit depth : 16 bits
Compression mode : Lossy
Stream size : 267 MiB (3%)
Title : iTunes
Language : Russian
Service kind : Complete Main
Default : Yes
Forced : Yes

Audio #2
ID : 3
Format : AC-3
Format/Info : Audio Coding 3
Commercial name : Dolby Digital
Codec ID : A_AC3
Duration : 1 h 37 min
Bit rate mode : Constant
Bit rate : 640 kb/s
Channel(s) : 6 channels
Channel layout : L R C LFE Ls Rs
Sampling rate : 48.0 kHz
Frame rate : 31.250 FPS (1536 SPF)
Bit depth : 16 bits
Compression mode : Lossy
Stream size : 446 MiB (5%)
Title : Original
Language : English
Service kind : Complete Main
Default : No
Forced : No

Menu
00:00:00.000 : fr:00:00:00.000
00:09:22.979 : fr:00:09:22.979
00:17:31.133 : fr:00:17:31.133
00:24:01.607 : fr:00:24:01.607
00:30:59.274 : fr:00:30:59.274
00:37:19.737 : fr:00:37:19.737
00:43:40.034 : fr:00:43:40.034
00:50:12.426 : fr:00:50:12.426
00:58:11.405 : fr:00:58:11.405
01:05:44.190 : fr:01:05:44.190
01:16:39.220 : fr:01:16:39.220
01:27:37.294 : fr:01:27:37.294

piratbit.ga



Скачать План побега 3 через торрент https://b.radikal.ru/b01/1909/cb/e8374290587c.jpg Скачать фильм План побега 3 через торрент бесплантно в хорошем качестве Описание: Непревзойденный взломщик тюрем Рэй Бреслин опять ввязался в смертельно опасную авантюру: вместе со своей командой он берётся ... 9.5 10 17
Торрент: Зарегистрирован [2019-09-10 02:30] · скачан: 166 раз
Статус: √ проверено
Размер: 9.22 GB
Как cкачать? Как скачать План побега 3 через торрент | qTorrent

% Раздел Тема Автор DL S | L
Фильмы 2019 [DVDrip, WEB-DLRip, HDrip] (DUB, MVO) [ 1.42 GB ] План побега 3 / Escape Plan: The Extractors [2019 BDRip] [Расширенная версия] bober100 Скачать
131 | 20
Фильмы 2019 [DVDrip, WEB-DLRip, HDrip] (DUB, MVO) [ 1.42 GB ] План побега 3 / Escape Plan: The Extractors [2019 BDRip] - Twi7ter Скачать
112 | 12
Фильмы 2019 [DVDrip, WEB-DLRip, HDrip] (DUB, MVO) [ 746 MB ] План побега 3 / Escape Plan: The Extractors [2019 BDRip] [Расширенная версия] bober100 Скачать
3 | 0
Фильмы (Blu-ray, BD-Remux, HDDVD) [ 24.67 GB ] План побега 3 / Escape Plan: The Extractors [2019 BD Remux 1080p] [Extended Cut] bober100 Скачать
1 | 0
Фильмы [HD 720p, 1080p] (Хороший звук DUB, MVO) [ 5.03 GB ] План побега 3 / Escape Plan: The Extractors [2019 BDRip 720p] [Расширенная версия] bober100 Скачать
12 | 0
Фильмы 2019 [DVDrip, WEB-DLRip, HDrip] (DUB, MVO) [ 743 MB ] План побега 3 / Escape Plan: The Extractors [2019 BDRip] MVO [СВ Студия] bober100 Скачать
4 | 0
Фильмы [HD 720p, 1080p] (Хороший звук DUB, MVO) [ 3.97 GB ] План побега 3 / Escape Plan: The Extractors [2019 BDRip 720p] [MVO] - ExKinoRay Enigma2010 Скачать
104 | 6


Последний раз редактировалось: bober100 (2019-09-10 02:30), всего редактировалось 1 раз


>> Регистрируемся здесь <<






Отзывы и комментарии о схеме читаем и пишем здесь: ---> Отзывы и комментарии о схеме

Новые благодарочки в телеграм довольных пользователей:
скриншот   скриншот   скриншот   скриншот   скриншот
    Дорогой пользователь! Огромная просьба, поблагодарите релизера, оцените раздачу и оставьте свои комментарий, если Вы скачали План побега 3 через торрент бесплатно! Внесите свою лепту в развитие PiratBit!
    Комментировать посты могут только пользователи прошедшие не сложную регистрацию
    Показать сообщения:    

    План побега 3 через торрент
    Скачать бесплатно План побега 3
    План побега 3 скачать торрент
    План побега 3 смотреть онлайн
    Cкачать фильм План побега 3 бесплатно
    План побега 3 скачать торрент в хорошем качестве
    План побега 3 смотреть онлайн бесплатно в хорошем качестве


    Вы не можете начинать темы
    Вы не можете отвечать на сообщения
    Вы не можете редактировать свои сообщения
    Вы не можете удалять свои сообщения
    Вы не можете голосовать в опросах
    Вы не можете прикреплять файлы к сообщениям
    Вы можете скачивать файлы