Ссылка на приватное зеркало всего за 1$. Внимание количество ограничено!!!

iTunes

1+1

iTunes

мы

MV0

1

WEB-DLRip

Джокер

Пифагор

Ведьмак / The Witcher сериал

iTunes

ПШазам

iTunes

Оно 2

iTunes

30
pack

Вам бонус

ВАЖНО

!!Акция!!

Alien_RageХит недели

RePack

Resident Evil 21

ИГРА 18+

pack

RePack

jed

!!Акция!!

Alien_Rage

RePack

fifa19

RePack

Assassins Creed: Odyssey

RePack

NEED FOR SPEED™ PAYBACK

4 сезон

9 сезон

Бесстыжие 9 сезон

Все сериалы

все сериалы на PB.wtf

RePack

FAR CRY 5
  

Хищник (Квадрология) / The Predator: Quadrilogy (Джон МакТирнан, Стивен Хопкинс, Нимрод Антал, Шейн Блэк) [1987-2018, Фантастика, триллер, боевик, ужасы, приключения, UHD BDRemux 2160p] DUB piratbit.ga

Хищник через торрент piratbit.ga

Раздают: 1 [ 0 KB/s ]
Размер: 190.41 GB | Добавлен: 1 год 2 мес. назад | Торрент скачан:39 раз
Скачать  

21-12-2018 02:55 Хищник Скачать торрент  

Хищник (Квадрология) / The Predator: QuadrilogyPredator: 4-Movie Collection 4K


Хищник / Predator

Год выпуска: 1987
Страна: США
Жанр: фантастика, боевик, триллер
Продолжительность: 01:46:35
Перевод: Дублированный
Субтитры: Русские (Full), английские (Full)
Режиссер: Джон МакТирнан
В ролях:

Арнольд Шварценеггер (Dutch), Карл Уэзерс (Dillon), Эльпидия Каррильо (Anna), Билл Дьюк (Mac), Джесси Вентура (Blain), Сонни Лэндэм (Billy), Ричард Чавес (Poncho), Р.Г. Армстронг (Gen. Phillips), Шейн Блэк (Hawkins), Кевин Питер Холл (The Predator / Helicopter Pilot), Стив Бойум (Hostage Executed by the Russian, в титрах не указан), Уильям Х. Бертон (Guerilla Soldier Shot Down from Tree, в титрах не указан)
Описание:
Американский вертолет был сбит партизанами в Южной Америке. Оставшийся в живых экипаж находится в плену. Центральное разведывательное управление США бросает свои лучшие силы для освобождения американских граждан.
Рейтинг:

MPAA: R - Лицам до 17 лет обязательно присутствие взрослого
Качество: UHD BDRemux 2160p
Формат: MKV
Видео: HEVC, HDR, 3840x2160 (16:9), 23.976 fps, 59.8 Mb/s, 0.301 bit/pixel, 10 bits
Аудио №1: DTS Audio / 5.1 / 48 kHz / 768 kbps / 24-bit | Профессиональный (полное дублирование) - Blu-ray CEE
Аудио №2: DTS-HD Master Audio / 5.1 / 48 kHz / 4500 kbps / 24-bit (DTS Core: 5.1 / 48 kHz / 1509 kbps / 24-bit) | English
Навигация по главам: есть
Жан-Клод Ван Дамм должен был сыграть Хищника, но после двух дней съёмок покинул проект, т. к. не хотел быть «ходячим спецэффектом». На его место пришел Кевин Питер Холл.
Создатели фильма пытались снять сцену, в которой Хищник должен был прыгать с дерева на дерево. Для этой цели хотели использовать обезьяну, одетую в специальный красный костюм. Однако, обезьяна постоянно пыталась избавиться от неудобного наряда. В конце концов, от данной идеи пришлось отказаться.
Идея внешнего вида нижней челюсти Хищника принадлежит Джеймсу Кэмерону.
Первоначальное название фильма — «Охотник» (Hunter).
Изначально предполагалось, что Хищник будет существом с длинной шеей; головой, по форме напоминающей собачью голову; и с большим глазом посередине лица. Дизайн пришельца подвергся существенной переработке, после того как на проект пришёл Стэн Уинстон.
Два водопада, которые появляются в фильме незадолго до финала, находятся недалеко от Паленке, Мексика.
Черный пилот вертолета в конце фильма — это Кевин Питер Холл, сыгравший Хищника.
Идея фильма возникла благодаря шутке: однажды кто-то сказал, что единственное существо, с которым еще не дрался Рокки Бальбоа, — это инопланетянин из фильма Стивена Спилберга.
Два актера, сыгравших коммандос, позднее были выбраны на пост губернатора штата: Джесси Вентура стал губернатором Миннесоты в 1998 году, Арнольд Шварценеггер был выбран губернатором Калифорнии в 2003 году. Также Сонни Лендхэм баллотировался на пост губернатора штат Кентукки, но проиграл выборы.
Оружие Блэйна (Джесси Вентура) — миниган. Данный пулемет монтируется на вертолеты или самолеты, поэтому в него пришлось внести множество изменений, для того чтобы сделать возможным его использование в фильме. Не смотря на то, что на съёмках миниган стрелял холостыми, Вентуре приходилось надевать бронежилет для защиты от вылетающих гильз.
Если бы на съёмках использовались боевые патроны, то отдача составила бы примерно силу, равную в 110 килограмм. Боеприпасы для двадцатисекундной сцены стрельбы должны были составить: 2000 патронов х 12,5 грамм (вес каждой пули) = 25 килограмм, и весь этот боекомплект должен был поместиться в рюкзаке Вентуры.
Сонни Лендхэм получил роль в этом фильме с одним условием: страховая компания настояла на том, чтобы круглые сутки около Лендхэма находился телохранитель. Однако, телохранитель должен был охранять не его, а других актеров, т. к. Сонни был большим любителем подраться.
Шэйн Блэк, сыгравший Хоукинса, также является успешным автором, на счету которого сценарии к таким фильмам, как «Смертельное оружие» (1987), «Последний бойскаут» (1991), «Долгий поцелуй на ночь» (1996), «Поцелуй навылет» (2005).
Джон МакТирнан за время съёмок в Мексике похудел на 25 фунтов (примерно 11,4 кг).
Во время съёмок Джон МакТирнан сломал запястье.
Джон МакТирнан признал, что Р. Г. Армстронг был слишком стар для своей роли. Гримерам пришлось покрыть лицо Армстронга ни одним слоем грима, для того чтобы скрыть его возраст.
Из-за соблюдения техники безопасности Арнольд Шварценеггер не мог прикуривать сигару внутри вертолета. Небольшой красный огонек был добавлен к сигаре с помощью компьютерных эффектов.
Джесси Вентура несказанно обрадовался, узнав, что объём его бицепса больше, чем у Арнольда Шварценеггера. Во время съёмок он предложил Арнольду измерить объемы их рук, победитель должен был получить бутылку шампанского. К большому удивлению Вентуры оказалось, что бицепс Шварценеггера больше. Дело в том, что Арнольд специально подговорил костюмеров, сообщивших Вентуре ложную информацию.
Во время финальных титров можно заметить, что Шэйн Блэк читает комикс «Сержант Рок» (Sgt. Rock). В конце 1980-х гг. предполагалось, что Шварценеггер сыграет главную роль в экранизации данного комикса, поэтому Арни притащил на съёмочную площадку множество выпусков «Сержанта».
Для своей роли Арнольд Шварценеггер похудел на 25 фунтов (примерно 11,3 кг).
Миниган, который носил Блэйн (Джесси Вентура), стрелял с такой высокой скоростью, что команде по спецэффектам пришлось замедлить вращение ствола, для того чтобы было видно, что пулемет действительно работает.
«Хищник» — актерский дебют для Джесси Вентуры и Шэйна Блэка.
Встречающийся в фильме ручной шестиствольный пулемёт системы Гатлинга — на самом деле устанавливается только на вертолётах или прочей самоходной технике и требует источника электроэнергии для приведения в действие. Скорострельность такого пулемёта такова, что стрелок просто будет не в состоянии удержать пулемёт при отдаче. А боезапас, который мог бы переносить один боец, расстреливается за 15-20 секунд. В специально изготовленном для съёмок пулемёте «Миниган» ХМ-214 (стрелявшем только холостыми) скорострельность была искусственно снижена до 2000 выстрелов в минуту, а кабель питания был спрятан в брюках актёра; чтобы удержать пулемёт, актёр опирался на подпорку, которую, естественно не видно. спойлер
ошибка
В сцене «термовидения», в которой Хищник рассматривает убитого скорпиона, можно увидеть дату съемки этой сцены — 12:19 22 мая 1986 года.
Шэйн Блэк, сыгравший Хоукинса, на съемках в свободное время писал сценарий к фильму «Последний Бойскаут» (1991).
Оскар, 1988 год
Номинации (1):
Лучшие визуальные эффекты

Сатурн, 1988 год
Победитель (1):
Лучшая музыка
Номинации (3):
Лучший научно-фантастический фильм
Лучший актер (Арнольд Шварценеггер)
Лучшие спецэффекты
General
Unique ID : 177640881269448667381350388945190683635 (0x85A463A6708A3588BBD536DE960483F3)
Complete name : E:\The.Predator.Quadrilogy.4K\Predator.1987.UHD.BDRemux.2160p.HEVC.HDR.mkv
Format : Matroska
Format version : Version 4
File size : 48.4 GiB
Duration : 1 h 46 min
Overall bit rate mode : Variable
Overall bit rate : 65.1 Mb/s
Movie name : Predator.1987.UHD.BDRemux.2160p.HEVC.HDR
Encoded date : UTC 2018-08-14 10:24:58
Writing application : mkvmerge v8.6.1 ('Flying') 64bit
Writing library : libebml v1.3.3 + libmatroska v1.4.4

Video
ID : 1
Format : HEVC
Format/Info : High Efficiency Video Coding
Commercial name : HDR10
Format profile : Main 10@L5.1@High
Codec ID : V_MPEGH/ISO/HEVC
Duration : 1 h 46 min
Bit rate : 59.8 Mb/s
Width : 3 840 pixels
Height : 2 160 pixels
Display aspect ratio : 16:9
Frame rate mode : Constant
Frame rate : 23.976 (24000/1001) FPS
Color space : YUV
Chroma subsampling : 4:2:0 (Type 2)
Bit depth : 10 bits
Bits/(Pixel*Frame) : 0.301
Stream size : 44.5 GiB (92%)
Title : Predator.1987.UHD.BDRemux.2160p.HEVC.HDR
Language : English
Default : Yes
Forced : No
Color range : Limited
Color primaries : BT.2020
Transfer characteristics : PQ
Matrix coefficients : BT.2020 non-constant
Mastering display color primaries : Display P3
Mastering display luminance : min: 0.0050 cd/m2, max: 1000 cd/m2

Audio #1
ID : 2
Format : DTS
Format/Info : Digital Theater Systems
Codec ID : A_DTS
Duration : 1 h 46 min
Bit rate mode : Constant
Bit rate : 768 kb/s
Channel(s) : 6 channels
Channel layout : C L R Ls Rs LFE
Sampling rate : 48.0 kHz
Frame rate : 93.750 FPS (512 SPF)
Bit depth : 24 bits
Compression mode : Lossy
Delay relative to video : -19 ms
Stream size : 585 MiB (1%)
Title : Russian, DTS, 6 ch, 768 kb/s
Language : Russian
Default : Yes
Forced : No

Audio #2
ID : 3
Format : DTS XLL
Format/Info : Digital Theater Systems
Commercial name : DTS-HD Master Audio
Codec ID : A_DTS
Duration : 1 h 46 min
Bit rate mode : Variable
Bit rate : 4 500 kb/s
Channel(s) : 6 channels
Channel layout : C L R Ls Rs LFE
Sampling rate : 48.0 kHz
Frame rate : 93.750 FPS (512 SPF)
Bit depth : 24 bits
Compression mode : Lossless
Stream size : 3.35 GiB (7%)
Title : English, DTS-HD MA, 6 ch, 4531 kb/s
Language : English
Default : No
Forced : No

Text #1
ID : 4
Format : UTF-8
Codec ID : S_TEXT/UTF8
Codec ID/Info : UTF-8 Plain Text
Duration : 1 h 45 min
Bit rate : 30 b/s
Count of elements : 415
Stream size : 23.4 KiB (0%)
Title : Full
Language : Russian
Default : No
Forced : No

Text #2
ID : 5
Format : UTF-8
Codec ID : S_TEXT/UTF8
Codec ID/Info : UTF-8 Plain Text
Duration : 1 h 37 min
Bit rate : 20 b/s
Count of elements : 433
Stream size : 14.9 KiB (0%)
Title : Full
Language : English
Default : No
Forced : No

Menu
00:00:00.000 : en:The Invaders (Main Titles)
00:04:04.284 : en:The Professionals
00:06:29.639 : en:Schaefer's Team
00:10:32.464 : en:Death in the Jungle
00:18:21.183 : en:The Watcher
00:20:21.553 : en:The Rebel Camp
00:27:52.337 : en:Set Up
00:31:04.279 : en:The Stalker
00:34:53.716 : en:The Only Way Out
00:37:49.600 : en:Something in the Trees
00:41:00.833 : en:The Living Jungle
00:46:33.373 : en:Another Kill
00:53:08.685 : en:There's Something Out There
01:01:37.402 : en:The Stand
01:04:08.761 : en:The Demon
01:08:09.919 : en:Two for the Kill
01:14:10.362 : en:Billy's Last Stand
01:15:50.212 : en:Dutch and the Demon
01:18:27.369 : en:The Alien's Weakness
01:20:55.015 : en:The Trap and the Trophies
01:25:09.270 : en:The Challenge
01:34:31.832 : en:One Ugly
01:35:49.118 : en:Duel
01:39:58.659 : en:The Last Laugh
01:42:56.170 : en:End Titles

Хищник 2 / Predator 2«Безмолвный. Невидимый. Непобедимый. Приходит в город, чтобы утолить свою жажду убивать»
Год выпуска: 1990
Страна: США
Жанр: ужасы, фантастика, боевик, триллер
Продолжительность: 01:48:00
Перевод: Дублированный
Субтитры: русские (Forced, Full), английские (Full)
Режиссер: Стивен Хопкинс
В ролях:

Дэнни Гловер (Lieutenant Mike Harrigan), Гэри Бьюзи (Peter Keyes), Рубен Бладес (Danny Archuleta), Мария Кончита Алонсо (Leona Cantrell), Билл Пэкстон (Jerry Lambert), Роберт Дави (Captain Phil Heinemann), Кевин Питер Холл (The Predator), Адам Болдуин (Garber), Кент МакКорд (Captain B. Pilgrim), Мортон Дауни мл. (Tony Pope), Кэлвин Локхарт (King Willie), Стив Кэхэн (Sergeant)
Описание:
Харриган - крутой полицейский отдела по борьбе с наркотиками полиции Лос-Анджелеса. Ему поручено расследование серии убийств крупных криминальных авторитетов города. Все убийства совершены в извращенной форме и пахнут неприкрытым садизмом. После проведения экспертиз и расследований становится ясно, что убийство - дело рук существа, не имеющего ничего общего с человеком.
Рейтинг:

MPAA: R - Лицам до 17 лет обязательно присутствие взрослого
Качество: UHD BDRemux 2160p
Формат: MKV
Видео: HEVC, HDR, 59148 Кбит/с, 3840x2160, 23.976 Кадр/с
Аудио №1: Русский DTS, 5.1 ch, 48kHz/24-bit, 768 kbps Дубляж, Blu-ray CEE
Аудио №2: Английский DTS-HD MA, 5.1 ch, 48 kHz/24-bit, 4167 kbps
Навигация по главам: есть
Арнольд Шварценеггер планировал сыграть в фильме, но, в конце концов, предпочел поработать над «Терминатором 2» (1991).
Среди трофеев Хищника можно заметить череп Чужого.
Идея включить череп Чужого в трофеи Хищника принадлежала Стэну Уинстону, который также работал над спецэффектами к «Чужим» (1986).
«Хищник 2» стал первым фильмом, получившим рейтинг «NC-17» (который был введен незадолго до премьеры картины) из-за огромного количества насилия на экране. Фильм перемонтировали более чем двадцать раз, для того чтобы получить рейтинг «R».
Сцена, в которой Хищник устраивает кровавую бойню в метро, снималась в огромном павильоне на студии «20th Century Fox». Непосредственно кадры с движущимся поездом снимались в Окланде, Калифорния.
Съёмки перестрелки в восточном Лос-Анджелесе заняли три дня.
Идеи внешнего облика оружия, используемого Хищником, принадлежат Стэну Уинстону, Стивену Хопкинсу и Лоуренсу Г. Поллу.
Съёмки сцены на скотобойне заняли четыре дня.
Следующие сцены были вырезаны из фильма:
1) Сюжетная линия, рассказывающая о беременности Леоны.
2) Сцена, в которой Дэнни Гловер преследует Хищника, была намного длиннее.
3) Бойня, которую учинил Хищник в метро.
Предполагалось, что события, показанные в фильме, будут происходить в Нью-Йорке, но из-за бюджетных ограничений место действия изменили на Лос-Анджелес. Сцена, в которой Хищник поднимает череп во время грозы, должна была происходить на крыше здания компании Chrysler.
Одну из ролей в фильме мог исполнить Патрик Суэйзи, но он не смог принять участия в проекте из-за травмы, полученной во время съёмок «Дома у дороги» (1989).
Звуки, которые издает Хищник, являются комбинацией звуков, кошек, тигров, львов и медведей.
Один из Хищников отдает герою Дэнни Гловера мушкет 1715 года. По словам сценаристов, это было сделано для того, чтобы оставить зацепку для продолжения, где действие происходило бы не в наше время, а несколько веков назад.
По словам сценаристов фильма, Джима и Джона Томасов, изначально не планировалось снимать продолжение «Хищника». Сиквел был запущен в производства после успешных продаж серии комиксов о космическом охотнике.
В основу ямайской бандитской группировки, показанной в фильме, легла настоящая банда, которая терроризировала Нью-Йорк и Канзас Сити в конце 1980-х гг.
В соответствующих фильмах Чужой, Хищник и Терминатор убивали персонажей Билла Пэкстона.
Одна из копий Хищника была украдена во время съёмок фильма.
Сценарий картины претерпел множество изменений. Например, изначально предполагалось, что вместо Кейса (Гари Бьюзи), будет Датч, персонаж Арнольда Шварценеггера из первого фильма. Но Арни не понравилась идея того, что действие будет происходить в городе, и он отказался от роли.
Фамилия Дэнни (Рубен Блейдс) – Архулета. Джей Том Архулета был помощником режиссера первого и второго фильмов о Хищнике.
Продюсеры предлагали Джону МакТирнану во второй раз занять режиссерское кресло, но он отказался.
Одну из ролей в картине исполнила Элпидия Каррильо, сыгравшая в «Хищнике» (1987) Анну. Её имя упоминается в финальных титрах, но в фильме заметить её очень сложно. Дело в том, что сцена с её участием была вырезана из картины. В этой сцене она рассказывает о событиях, произошедших в южно-американских джунглях. Не смотря на то, что сцену вырезали, Анна всё-таки появляется на экране. Видео с её участием можно заметить на мониторе в передвижном командном пункте Питера Кейса (Гари Бьюзи), когда он рассказывает о механизме самоуничтожения Хищника.
Хищники на борту корабля в конце фильма — баскетбольная команда НБА Лос-Анджелес Лейкерс.
General
Unique ID : 240294158628122785694907929441561444989 (0xB4C6F8B7EA4D0190A85D8583111B827D)
Complete name : E:\The.Predator.Quadrilogy.4K\Predator.2.1990.UHD.BDRemux.2160p.HEVC.HDR.mkv
Format : Matroska
Format version : Version 4
File size : 48.3 GiB
Duration : 1 h 48 min
Overall bit rate mode : Variable
Overall bit rate : 64.1 Mb/s
Movie name : Predator.2.1990.UHD.BDRemux.2160p.HEVC.HDR
Encoded date : UTC 2018-08-15 06:52:47
Writing application : mkvmerge v8.6.1 ('Flying') 64bit
Writing library : libebml v1.3.3 + libmatroska v1.4.4

Video
ID : 1
Format : HEVC
Format/Info : High Efficiency Video Coding
Commercial name : HDR10
Format profile : Main 10@L5.1@High
Codec ID : V_MPEGH/ISO/HEVC
Duration : 1 h 48 min
Bit rate : 59.1 Mb/s
Width : 3 840 pixels
Height : 2 160 pixels
Display aspect ratio : 16:9
Frame rate mode : Constant
Frame rate : 23.976 (24000/1001) FPS
Color space : YUV
Chroma subsampling : 4:2:0 (Type 2)
Bit depth : 10 bits
Bits/(Pixel*Frame) : 0.297
Stream size : 44.6 GiB (92%)
Title : Predator.2.1990.UHD.BDRemux.2160p.HEVC.HDR
Language : English
Default : Yes
Forced : No
Color range : Limited
Color primaries : BT.2020
Transfer characteristics : PQ
Matrix coefficients : BT.2020 non-constant
Mastering display color primaries : Display P3
Mastering display luminance : min: 0.0050 cd/m2, max: 1000 cd/m2

Audio #1
ID : 2
Format : DTS
Format/Info : Digital Theater Systems
Codec ID : A_DTS
Duration : 1 h 48 min
Bit rate mode : Constant
Bit rate : 768 kb/s
Channel(s) : 6 channels
Channel layout : C L R Ls Rs LFE
Sampling rate : 48.0 kHz
Frame rate : 93.750 FPS (512 SPF)
Bit depth : 24 bits
Compression mode : Lossy
Delay relative to video : -18 ms
Stream size : 593 MiB (1%)
Title : Russian, DTS, 6 ch, 768 kb/s
Language : Russian
Default : Yes
Forced : No

Audio #2
ID : 3
Format : DTS XLL
Format/Info : Digital Theater Systems
Commercial name : DTS-HD Master Audio
Codec ID : A_DTS
Duration : 1 h 48 min
Bit rate mode : Variable
Bit rate : 4 167 kb/s
Channel(s) : 6 channels
Channel layout : C L R Ls Rs LFE
Sampling rate : 48.0 kHz
Frame rate : 93.750 FPS (512 SPF)
Bit depth : 24 bits
Compression mode : Lossless
Stream size : 3.14 GiB (7%)
Title : English, DTS-HD MA, 6 ch, 4167 kb/s
Language : English
Default : No
Forced : No

Text #1
ID : 4
Format : UTF-8
Codec ID : S_TEXT/UTF8
Codec ID/Info : UTF-8 Plain Text
Duration : 1 h 31 min
Bit rate : 0 b/s
Count of elements : 12
Stream size : 465 Bytes (0%)
Title : Forced
Language : Russian
Default : Yes
Forced : Yes

Text #2
ID : 5
Format : UTF-8
Codec ID : S_TEXT/UTF8
Codec ID/Info : UTF-8 Plain Text
Duration : 1 h 40 min
Bit rate : 63 b/s
Count of elements : 703
Stream size : 46.3 KiB (0%)
Title : Full
Language : Russian
Default : No
Forced : No

Text #3
ID : 6
Format : UTF-8
Codec ID : S_TEXT/UTF8
Codec ID/Info : UTF-8 Plain Text
Duration : 1 h 40 min
Bit rate : 37 b/s
Count of elements : 703
Stream size : 27.9 KiB (0%)
Title : Full
Language : English
Default : No
Forced : No

Menu
00:00:00.000 : en:Chapter 1
00:03:11.608 : en:Chapter 2
00:07:26.112 : en:Chapter 3
00:11:40.199 : en:Chapter 4
00:14:05.177 : en:Chapter 5
00:16:03.128 : en:Chapter 6
00:18:57.761 : en:Chapter 7
00:22:21.214 : en:Chapter 8
00:25:48.547 : en:Chapter 9
00:29:03.658 : en:Chapter 10
00:30:19.984 : en:Chapter 11
00:32:41.000 : en:Chapter 12
00:36:39.655 : en:Chapter 13
00:41:01.792 : en:Chapter 14
00:43:00.202 : en:Chapter 15
00:47:17.668 : en:Chapter 16
00:51:13.612 : en:Chapter 17
00:53:42.844 : en:Chapter 18
00:58:14.199 : en:Chapter 19
01:01:18.508 : en:Chapter 20
01:04:46.382 : en:Chapter 21
01:07:36.052 : en:Chapter 22
01:15:41.662 : en:Chapter 23
01:16:49.313 : en:Chapter 24
01:19:23.008 : en:Chapter 25
01:22:01.583 : en:Chapter 26
01:26:10.707 : en:Chapter 27
01:31:31.986 : en:Chapter 28
01:33:38.112 : en:Chapter 29
01:36:19.231 : en:Chapter 30
01:37:54.368 : en:Chapter 31
01:41:48.393 : en:Chapter 32

Хищники / Predators«Они - самые опасные убийцы на планете. Но это не наша планета...»
Год выпуска: 2010
Страна: США
Жанр: фантастика, боевик, триллер, приключения
Продолжительность: 01:46:53
Перевод: Дублированный
Субтитры: Русские (Full), английские (Full)
Режиссер: Нимрод Антал
В ролях:

Эдриан Броуди (Royce), Тофер Грейс (Edwin), Алиси Брага (Isabelle), Уолтон Гоггинс (Stans), Олег Тактаров (Nikolai), Лоренс Фишбёрн (Noland), Дэнни Трехо (Cuchillo), Луис Одзава Чжанцзянь (Hanzo), Махершала Али (Mombasa), Кэри Джонс (Tracker Predator), Брайан Стил (Berserker Predator / Falconer Predator), Дерек Мирс (Classic Predator)
Описание:
Наемник Ройс невольно вынужден возглавить группу профессионалов, выполняющих загадочную миссию на неизвестной планете. За исключением опального доктора все они - хладнокровные убийцы: наемники, гангстеры, осужденные и участники отрядов смерти - людские «хищники». Но когда их начинает систематически преследовать и истреблять невообразимое чудовище, становится очевидно, что теперь они в роли своих жертв.
Рейтинг:

MPAA: R - Лицам до 17 лет обязательно присутствие взрослого
Качество: UHD BDRemux 2160p
Формат: MKV
Видео: MPEG-H HEVC HDR Video, 3840x2160, 57.3.0 Mbit/s, 23.976 fps
Аудио#1: 48.0 kHz, DTS, 3/2 (L,C,R,l,r) + LFE ch, 768 kbps | BD CEE
Аудио#2: 48.0 kHz, DTS-HD MA, 3/2 (L,C,R,l,r) + LFE ch, 4031 kbps | Original
Навигация по главам: есть
- Роберт Родригес написал несколько вариантов сценария «Хищник 3» еще в 1994 году. Однако после неутешительных кассовых сборов «Хищника 2» (1990), а также того факта, что триквел требовал существенный бюджет, проект так и не был реализован. По словам Родригеса, многие элементы его ранних сценариев вошли в «Хищники».
- Изначально Роберт Родригес подумывал о постановке фильма, но потом решил ограничиться сценарными и продюсерскими функциями.
- На пост режиссера рассматривались Нил Маршалл, Майкл Дж. Бассетт и Билл Дьюк.
- Даррен Линн Боусман и Маркус Ниспел выражали заинтересованность в постановке картины.
- Съемочный период занял в общей сложности 53 дня.
- Убедив студию, что Ройс не должен быть громилой, Родригес оказался перед богатым выбором. В частности, на роль претендовали Мило Вентимилья, Фредди Родригес, Джош Бролин.
- То, что Элис Брага - латиноамериканка, можно рассматривать как преемственность и добрую традицию. В первых двух «Хищниках» тоже единственными женскими персонажами были латиноамериканки.
- На роль Ноланда до Фишберна пробовался Джефф Фэйхи.
- Кучильо - прозвище героя Дэнни Трехо - по-испански означает «нож».
General
Unique ID : 211041933982997332921510522058207634666 (0x9EC532B14D7F5C8AB2B72EA88CBBA4EA)
Complete name : E:\The.Predator.Quadrilogy.4K\Predators.2010.UHD.BDRemux.2160p.HEVC.HDR.mkv
Format : Matroska
Format version : Version 4
File size : 46.4 GiB
Duration : 1 h 46 min
Overall bit rate mode : Variable
Overall bit rate : 62.1 Mb/s
Movie name : Predators.2010.UHD.BDRemux.2160p.HEVC.HDR
Encoded date : UTC 2018-08-15 10:25:17
Writing application : mkvmerge v8.6.1 ('Flying') 64bit
Writing library : libebml v1.3.3 + libmatroska v1.4.4

Video
ID : 1
Format : HEVC
Format/Info : High Efficiency Video Coding
Commercial name : HDR10
Format profile : Main 10@L5.1@High
Codec ID : V_MPEGH/ISO/HEVC
Duration : 1 h 46 min
Bit rate : 57.3 Mb/s
Width : 3 840 pixels
Height : 2 160 pixels
Display aspect ratio : 16:9
Frame rate mode : Constant
Frame rate : 23.976 (24000/1001) FPS
Color space : YUV
Chroma subsampling : 4:2:0 (Type 2)
Bit depth : 10 bits
Bits/(Pixel*Frame) : 0.288
Stream size : 42.8 GiB (92%)
Title : Predators.2010.UHD.BDRemux.2160p.HEVC.HDR
Language : English
Default : Yes
Forced : No
Color range : Limited
Color primaries : BT.2020
Transfer characteristics : PQ
Matrix coefficients : BT.2020 non-constant
Mastering display color primaries : Display P3
Mastering display luminance : min: 0.0050 cd/m2, max: 1000 cd/m2

Audio #1
ID : 2
Format : DTS
Format/Info : Digital Theater Systems
Codec ID : A_DTS
Duration : 1 h 46 min
Bit rate mode : Constant
Bit rate : 768 kb/s
Channel(s) : 6 channels
Channel layout : C L R Ls Rs LFE
Sampling rate : 48.0 kHz
Frame rate : 93.750 FPS (512 SPF)
Bit depth : 24 bits
Compression mode : Lossy
Stream size : 587 MiB (1%)
Title : Russian, DTS, 6 ch, 768 kb/s
Language : Russian
Default : Yes
Forced : No

Audio #2
ID : 3
Format : DTS XLL
Format/Info : Digital Theater Systems
Commercial name : DTS-HD Master Audio
Codec ID : A_DTS
Duration : 1 h 46 min
Bit rate mode : Variable
Bit rate : 4 031 kb/s
Channel(s) : 6 channels
Channel layout : C L R Ls Rs LFE
Sampling rate : 48.0 kHz
Frame rate : 93.750 FPS (512 SPF)
Bit depth : 24 bits
Compression mode : Lossless
Stream size : 3.01 GiB (6%)
Title : English, DTS-HD MA, 6 ch, 4031 kb/s
Language : English
Default : No
Forced : No

Text #1
ID : 4
Format : UTF-8
Codec ID : S_TEXT/UTF8
Codec ID/Info : UTF-8 Plain Text
Duration : 1 h 37 min
Bit rate : 40 b/s
Count of elements : 748
Stream size : 29.0 KiB (0%)
Title : Full
Language : Russian
Default : No
Forced : No

Text #2
ID : 5
Format : UTF-8
Codec ID : S_TEXT/UTF8
Codec ID/Info : UTF-8 Plain Text
Duration : 1 h 43 min
Bit rate : 22 b/s
Count of elements : 738
Stream size : 16.8 KiB (0%)
Title : Full
Language : English
Default : Yes
Forced : No

Menu
00:00:00.000 : en:00:00:00.000
00:05:27.035 : en:00:05:27.035
00:07:57.394 : en:00:07:57.394
00:13:33.521 : en:00:13:33.521
00:17:26.587 : en:00:17:26.587
00:20:02.410 : en:00:20:02.410
00:23:46.300 : en:00:23:46.300
00:26:19.119 : en:00:26:19.119
00:31:34.518 : en:00:31:34.518
00:34:56.511 : en:00:34:56.511
00:38:24.719 : en:00:38:24.719
00:41:57.056 : en:00:41:57.056
00:46:12.979 : en:00:46:12.979
00:49:57.786 : en:00:49:57.786
00:53:27.955 : en:00:53:27.955
00:57:43.126 : en:00:57:43.126
01:02:11.853 : en:01:02:11.853
01:05:48.903 : en:01:05:48.903
01:09:38.758 : en:01:09:38.758
01:14:16.994 : en:01:14:16.994
01:16:25.539 : en:01:16:25.539
01:19:26.929 : en:01:19:26.929
01:21:34.473 : en:01:21:34.473
01:23:51.902 : en:01:23:51.902
01:27:33.707 : en:01:27:33.707
01:30:48.234 : en:01:30:48.234
01:34:12.564 : en:01:34:12.564
01:41:17.697 : en:01:41:17.697

Хищник / The Predator«You'll never see him coming»
Год выпуска: 2018
Страна: США, Канада
Жанр: ужасы, фантастика, боевик, триллер, приключения
Продолжительность: 01:46:56
Перевод: Дублированный
Субтитры: Русские (форсированные, полные), английские (полные)
Режиссер: Шейн Блэк
В ролях:

Бойд Холбрук (Quinn McKenna), Треванте Роудс (Nebraska Williams), Джейкоб Тремблей (Rory McKenna), Кигэн-Майкл Ки (Coyle), Оливия Манн (Casey Bracket), Стерлинг К. Браун (Traeger), Томас Джейн (Baxley), Алфи Аллен (Lynch), Августо Агилера (Nettles), Джейк Бьюзи (Keyes), Ивонн Страховски (Emily), Брайан А. Принц (Predator)
Описание:
Главный герой, бывший морпех, обнаруживает злобную инопланетную расу на Земле, но никто не верит ему, что эти твари существуют. Его сын-аутист, которого все обижают в школе, становится ключевой фигурой в схватке с Хищниками, поскольку мальчик умеет невероятно быстро учить языки и, судя по всему, сможет понять пришельцев.
Рейтинг:

MPAA: R - Лицам до 17 лет обязательно присутствие взрослого
Качество: UHD BDRemux 2160p
Формат: MKV
Видео: HEVC HDR, 3840x2160 (16:9), 23.976 fps, 57.7 Mb/s (0.290 bit/pixel)
Аудио #1: AC-3, 48.0 kHz, 6 ch, 384 kb/s, CBR (Russian) | Дублированный | [iTunes]
Аудио #2: TrueHD TrueHD+Atmos / TrueHD, / 48.0 kHz, Object Based / 8 ch, 5 087 kb/s, VBR (English)
Навигация по главам: Есть
General
Unique ID : 245901444386779449646679986456399548515 (0xB8FEE54039CA7E708692D72FE9BD9063)
Complete name : E:\The.Predator.Quadrilogy.4K\The.Predator.2018.UHD.BDRemux.2160p.HEVC.HDR.mkv
Format : Matroska
Format version : Version 4
File size : 47.2 GiB
Duration : 1 h 46 min
Overall bit rate mode : Variable
Overall bit rate : 63.2 Mb/s
Movie name : The.Predator.2018.UHD.BDRemux.2160p.HEVC.HDR
Encoded date : UTC 2018-12-18 11:13:20
Writing application : mkvmerge v8.6.1 ('Flying') 64bit
Writing library : libebml v1.3.3 + libmatroska v1.4.4

Video
ID : 1
Format : HEVC
Format/Info : High Efficiency Video Coding
Commercial name : HDR10
Format profile : Main 10@L5.1@High
Codec ID : V_MPEGH/ISO/HEVC
Duration : 1 h 46 min
Bit rate : 57.7 Mb/s
Width : 3 840 pixels
Height : 2 160 pixels
Display aspect ratio : 16:9
Frame rate mode : Constant
Frame rate : 23.976 (24000/1001) FPS
Color space : YUV
Chroma subsampling : 4:2:0 (Type 2)
Bit depth : 10 bits
Bits/(Pixel*Frame) : 0.290
Stream size : 43.1 GiB (91%)
Title : The.Predator.2018.UHD.BDRemux.2160p.HEVC.HDR
Language : English
Default : Yes
Forced : No
Color range : Limited
Color primaries : BT.2020
Transfer characteristics : PQ
Matrix coefficients : BT.2020 non-constant
Mastering display color primaries : Display P3
Mastering display luminance : min: 0.0050 cd/m2, max: 1000 cd/m2

Audio #1
ID : 2
Format : AC-3
Format/Info : Audio Coding 3
Commercial name : Dolby Digital
Codec ID : A_AC3
Duration : 1 h 46 min
Bit rate mode : Constant
Bit rate : 384 kb/s
Channel(s) : 6 channels
Channel layout : L R C LFE Ls Rs
Sampling rate : 48.0 kHz
Frame rate : 31.250 FPS (1536 SPF)
Bit depth : 16 bits
Compression mode : Lossy
Stream size : 294 MiB (1%)
Title : Russian, AC3, 6 ch, 384 kb/s
Language : Russian
Service kind : Complete Main
Default : Yes
Forced : No

Audio #2
ID : 3
Format : MLP FBA 16-ch
Format/Info : Meridian Lossless Packing FBA with 16-channel presentation
Commercial name : Dolby TrueHD with Dolby Atmos
Codec ID : A_TRUEHD
Duration : 1 h 46 min
Bit rate mode : Variable
Bit rate : 5 087 kb/s
Maximum bit rate : 8 853 kb/s
Channel(s) : 8 channels
Channel layout : L R C LFE Ls Rs Lb Rb
Sampling rate : 48.0 kHz
Frame rate : 1 200.000 FPS (40 SPF)
Compression mode : Lossless
Delay relative to video : 4 ms
Stream size : 3.80 GiB (8%)
Title : English, TrueHD, 8 ch, 5087 kb/s
Language : English
Default : No
Forced : No
Number of dynamic objects : 13
Bed channel count : 1 channel
Bed channel configuration : LFE

Text #1
ID : 4
Format : UTF-8
Codec ID : S_TEXT/UTF8
Codec ID/Info : UTF-8 Plain Text
Duration : 1 h 45 min
Bit rate : 1 b/s
Count of elements : 22
Stream size : 1.02 KiB (0%)
Title : Forced
Language : Russian
Default : Yes
Forced : Yes

Text #2
ID : 5
Format : UTF-8
Codec ID : S_TEXT/UTF8
Codec ID/Info : UTF-8 Plain Text
Duration : 1 h 45 min
Bit rate : 70 b/s
Count of elements : 1270
Stream size : 54.4 KiB (0%)
Title : Full
Language : Russian
Default : No
Forced : No

Text #3
ID : 6
Format : UTF-8
Codec ID : S_TEXT/UTF8
Codec ID/Info : UTF-8 Plain Text
Duration : 1 h 38 min
Bit rate : 49 b/s
Count of elements : 1366
Stream size : 35.6 KiB (0%)
Title : Full
Language : English
Default : No
Forced : No

Menu
00:00:00.000 : :Глава 01
00:02:00.703 : :Глава 02
00:08:32.929 : :Глава 03
00:09:45.334 : :Глава 04
00:13:47.660 : :Глава 05
00:16:09.176 : :Глава 06
00:17:36.430 : :Глава 07
00:20:21.470 : :Глава 08
00:25:01.958 : :Глава 09
00:27:36.279 : :Глава 10
00:31:10.076 : :Глава 11
00:36:23.347 : :Глава 12
00:38:00.653 : :Глава 13
00:39:42.546 : :Глава 14
00:44:34.713 : :Глава 15
00:49:15.911 : :Глава 16
00:53:18.612 : :Глава 17
00:58:34.510 : :Глава 18
00:59:58.511 : :Глава 19
01:03:16.292 : :Глава 20
01:06:36.826 : :Глава 21
01:09:51.020 : :Глава 22
01:12:26.633 : :Глава 23
01:15:55.634 : :Глава 24
01:18:52.686 : :Глава 25
01:21:24.629 : :Глава 26
01:23:08.942 : :Глава 27
01:27:08.806 : :Глава 28
01:30:55.241 : :Глава 29
01:32:14.820 : :Глава 30
01:35:08.411 : :Глава 31
01:40:00.202 : :Глава 32
piratbit.ga



Скачать Хищник через торрент https://a.radikal.ru/a04/1812/1b/cbc9279936ac.jpg Скачать фильм Хищник через торрент бесплантно в хорошем качестве Описание: Американский вертолет был сбит партизанами в Южной Америке. Оставшийся в живых экипаж находится в плену. Центральное ... 9.4 10 17
Info! Золотая раздача, скачанное не засчитывается.
Торрент: Зарегистрирован [2018-12-21 02:55] · скачан: 39 раз
Статус: √ проверено
Размер: 190.41 GB
Как cкачать? Как скачать Хищник через торрент | qTorrent

% Раздел Тема Автор DL S | L
Ultra HD (UHD: 2K, 4K, 8K) — видео сверхвысокой чёткости [ 55.74 GB ] Хищник / The Predator [2018 UHD BDRemux 2160p] DUB [] + 2xAVO sheker187 Скачать
1 | 0
Фильмы [HD 720p, 1080p] (Хороший звук DUB, MVO) [ 5 GB ] Хищник / Predator [1987 BDRip 1080p-HEVC 10bit] DUB ADVOKAT69 Скачать
1 | 0
Фильмы [HD 720p, 1080p] (Хороший звук DUB, MVO) [ 6.44 GB ] Хищник / The Predator [2018 BDRip-HEVC 1080p ] DUB [] bober100 Скачать
1 | 0
Фильмы [HD 720p, 1080p] (Хороший звук DUB, MVO) [ 9.08 GB ] Хищник / The Predator [2018 BDRip 720p] MVO [HDRezka Studio] +AVO [М.Яроцкий] +DUB [] bober100 Скачать
2 | 0
Фильмы 2018 [DVDrip, WEB-DLRip, HDrip] (DUB, MVO) [ 755 MB ] Хищник / The Predator [2018 HDRip] DUB [] bober100 Скачать
1 | 0
Ultra HD (UHD: 2K, 4K, 8K) — видео сверхвысокой чёткости [ 52.74 GB ] Хищник / The Predator [2018 UHD BDRemux 2160p] MVO [HDRezka Studio] +AVO [М.Яроцкий] +DUB [] bober100 Скачать
1 | 0
Ultra HD (UHD: 2K, 4K, 8K) — видео сверхвысокой чёткости [ 18.31 GB ] Хищник / The Predator [2018 UHD BDRip 2160p] MVO [HDRezka Studio] +DUB [] bober100 Скачать
1 | 0

28-11-2019 20:33  

Отключить всю рекламу на сайте

30-10-2019 15:39 Хищник Скачать торрент  

Уважаемые встаньте на раздачу пожалуйстаpiratbit.ga



    Дорогой пользователь! Огромная просьба, поблагодарите релизера, оцените раздачу и оставьте свои комментарий, если Вы скачали Хищник через торрент бесплатно! Внесите свою лепту в развитие PiratBit!
    Комментировать посты могут только пользователи прошедшие не сложную регистрацию
    Показать сообщения:    

    Хищник через торрент
    Скачать бесплатно Хищник
    Хищник скачать торрент
    Хищник смотреть онлайн
    Cкачать фильм Хищник бесплатно
    Хищник скачать торрент в хорошем качестве
    Хищник смотреть онлайн бесплатно в хорошем качестве


    Вы не можете начинать темы
    Вы не можете отвечать на сообщения
    Вы не можете редактировать свои сообщения
    Вы не можете удалять свои сообщения
    Вы не можете голосовать в опросах
    Вы не можете прикреплять файлы к сообщениям
    Вы можете скачивать файлы